Prizoniera Dragostei episodul 31 | 15:22 watch on Vidto.me | The Comedian (2016) film complet
Sign Up   |   Sign In  

Announcements

Want to support us?
Buy a RapidRAR account from our resellers:
Buy or renew a NitroFlare account via THIS LINK

02/17

2017

No

Comments

Training Day S01E03 720p WEB-DL DD5 1 H264-RARBG
[RR/NF/UL/UR/CU]
Size: 1.3GB mkv H264 (HIGH) / AC3  HD  1280x718

Training Day
Click on the image to see full size
[RR/NF/UL/UR/CU] Training Day S01E03 720p WEB-DL DD5 1 H264-RARBG (1.3GB) - Snapshot 1
File Information
[URL=http://imagecurl.com/viewer.php?file=38047820275635700921.png][IMG]http://imagecurl.com/images/38047820275635700921_thumb.png[/IMG][/URL]
[URL=http://imagecurl.com/viewer.php?file=78222505527963461462.png][IMG]http://imagecurl.com/images/78222505527963461462_thumb.png[/IMG][/URL]
[URL=http://imagecurl.com/viewer.php?file=19787641590671861644.png][IMG]http://imagecurl.com/images/19787641590671861644_thumb.png[/IMG][/URL]
[URL=http://imagecurl.com/viewer.php?file=15549158498209580741.png][IMG]http://imagecurl.com/images/15549158498209580741_thumb.png[/IMG][/URL]
[URL=http://imagecurl.com/viewer.php?file=14023850300000248342.png][IMG]http://imagecurl.com/images/14023850300000248342_thumb.png[/IMG][/URL]
[URL=http://imagecurl.com/viewer.php?file=02211646308683240983.png][IMG]http://imagecurl.com/images/02211646308683240983_thumb.png[/IMG][/URL]



[mediainfo]
Video
ID                                       : 1
Format                                   : AVC
Format/Info                              : Advanced Video Codec
Format profile                           : [email protected]
Format settings, CABAC                   : No
Format settings, ReFrames                : 2 frames
Codec ID                                 : V_MPEG4/ISO/AVC
Duration                                 : 43mn 1s
Bit rate                                 : 3 896 Kbps
Width                                    : 1 280 pixels
Height                                   : 718 pixels
Display aspect ratio                     : 16:9
Frame rate mode                          : Constant
Frame rate                               : 23.976 fps
Color space                              : YUV
Chroma subsampling                       : 4:2:0
Bit depth                                : 8 bits
Scan type                                : Progressive
Bits/(Pixel*Frame)                       : 0.177
Stream size                              : 1.17 GiB (89%)
Title                                    : Training.Day.S01E03.720p.WEB-DL.DD5.1.H264-RARBG
Language                                 : English
Default                                  : Yes
Forced                                   : No
Color range                              : Limited
Color primaries                          : BT.709
Transfer characteristics                 : BT.709
Matrix coefficients                      : BT.709

Audio
ID                                       : 2
Format                                   : AC-3
Format/Info                              : Audio Coding 3
Mode extension                           : CM (complete main)
Format settings, Endianness              : Big
Codec ID                                 : A_AC3
Duration                                 : 43mn 1s
Bit rate mode                            : Constant
Bit rate                                 : 384 Kbps
Channel(s)                               : 6 channels
Channel positions                        : Front: L C R, Side: L R, LFE
Sampling rate                            : 48.0 KHz
Frame rate                               : 31.250 fps (1536 spf)
Compression mode                         : Lossy
Stream size                              : 118 MiB (9%)
Title                                    : Training.Day.S01E03.720p.WEB-DL.DD5.1.H264-RARBG
Language                                 : English
Default                                  : Yes
Forced                                   : No

Text #1
ID                                       : 3
Format                                   : UTF-8
Codec ID                                 : S_TEXT/UTF8
Codec ID/Info                            : UTF-8 Plain Text
Language                                 : English
Default                                  : Yes
Forced                                   : No

Text #2
ID                                       : 4
Format                                   : UTF-8
Codec ID                                 : S_TEXT/UTF8
Codec ID/Info                            : UTF-8 Plain Text
Title                                    : SDH
Language                                 : English
Default                                  : No
Forced                                   : No



[/mediainfo]
Download
File Container: MKV
Video/Audio Codec: H264 (HIGH) AC3
Video Resolution: 1280x718
http://rapidrar.com/0vu7xtun3a79 http://rapidrar.com/hf7x7phsse8z
http://nitroflare.com/view/B17B6F6BDB77BE2/Training.Day.S01E03.720p.WEB-DL.DD5.1.H264-RARBG-SDH.www.RapidMovieZ.com.srt http://nitroflare.com/view/B3D7981C5F2B74E/Training.Day.S01E03.720p.WEB-DL.DD5.1.H264-RARBG.www.RapidMovieZ.com.srt
http://uploaded.net/file/7gib6k7w http://uploaded.net/file/bn8cg72s
http://uploadrocket.net/1m3zo52d1ns7 http://uploadrocket.net/ruvxo6epzloz
http://clicknupload.link/iz847zs33r9c http://clicknupload.link/exp6zxkpbdfm
All releases of "Training Day"

Show us some love

Leave a Comment

  • (never displayed)
  •  
        Members don't see captchas. Sign Up / Sign In
  • Notify me via email when someone responds.

Latest Episodes

Popular Movies and TV Shows

Recent Comments

Archives