Damien Season 1 | Harvey Beaks | Invisible Sister (2015)
Sign Up   |   Sign In  

Announcements

Want to support us?
Buy a RapidRAR account from our resellers:
Buy or renew a NitroFlare account via THIS LINK

02/14

2017

No

Comments

Timeless S01E15 WEBRip x264-RARBG
[RR/NF/UL/OL/OLw/UR/CU]
Size: 379MB mp4 H264 (HIGH) (AVC1) / AAC (LC) (MP4A) 720x400

Timeless
Click on the image to see full size
[RR/NF/UL/OL/OLw/UR/CU] Timeless S01E15 WEBRip x264-RARBG (379MB) - Snapshot 1[RR/NF/UL/OL/OLw/UR/CU] Timeless S01E15 WEBRip x264-RARBG (379MB) - Snapshot 2
File Information
[URL]http://www.imdb.com/title/tt5511582/[/URL]
[screenshots]
[URL=http://imagecurl.com/viewer.php?file=65221073550650055946.png][IMG]http://imagecurl.com/images/65221073550650055946_thumb.png[/IMG][/URL]
[URL=http://imagecurl.com/viewer.php?file=48205297221305394316.png][IMG]http://imagecurl.com/images/48205297221305394316_thumb.png[/IMG][/URL]
[URL=http://imagecurl.com/viewer.php?file=30351755906645942191.png][IMG]http://imagecurl.com/images/30351755906645942191_thumb.png[/IMG][/URL]
[URL=http://imagecurl.com/viewer.php?file=41427604728428699590.png][IMG]http://imagecurl.com/images/41427604728428699590_thumb.png[/IMG][/URL]

[/screenshots]


[mediainfo]
Video
ID                                       : 1
Format                                   : AVC
Format/Info                              : Advanced Video Codec
Format profile                           : [email protected]
Format settings, CABAC                   : Yes
Format settings, ReFrames                : 5 frames
Codec ID                                 : avc1
Codec ID/Info                            : Advanced Video Coding
Duration                                 : 43mn 1s
Bit rate                                 : 1 100 Kbps
Width                                    : 720 pixels
Height                                   : 400 pixels
Display aspect ratio                     : 16:9
Frame rate mode                          : Constant
Frame rate                               : 23.976 (24000/1001) fps
Color space                              : YUV
Chroma subsampling                       : 4:2:0
Bit depth                                : 8 bits
Scan type                                : Progressive
Bits/(Pixel*Frame)                       : 0.159
Stream size                              : 339 MiB (89%)
Title                                    : RARBG.COM - Timeless.S01E15.WEBRip.x264-RARBG
Writing library                          : x264 core 148 r2597M e86f3a1
 Encoding settings                        : cabac=1 / ref=5 / deblock=1:-1:-1 / analyse=0x3:0x113 / me=umh / subme=9 / psy=1 / psy_rd=1.00:0.15 / mixed_ref=1 / me_range=16 / chroma_me=1 / trellis=2 / 8x8dct=1 / cqm=0 / deadz / fast pskip=1 / chroma_qp_offset=-3 / threads=12 / lookahead_threads=1 / sliced_threads=0 / nr=0 / decimate=1 / interlaced=0 / bluray_compat=0 / c / bframes=3 / b_pyramid=2 / b_adapt=2 / b_bias=0 / direct=3 / weightb=1 / open_gop=0 / weightp=2 / keyint=250 / keyint_min=23 / scenecut=40 / intra_refresh=0 / rc_lookahead=50 / rc=abr / mbtree=1 / bitrate=1100 / ratetol=1.0 / qcomp=0.60 / qpmin=0 / qpmax=69 / qpstep=4 / ip_ratio=1.40 / aq=1:1.00
Language                                 : English
Encoded date                             : UTC 2017-02-14 18:45:31
Tagged date                              : UTC 2017-02-14 18:45:31

Audio
ID                                       : 2
Format                                   : AAC
Format/Info                              : Advanced Audio Codec
Format profile                           : LC
Codec ID                                 : 40
Duration                                 : 43mn 2s
Duration_LastFrame                       : -11ms
Bit rate mode                            : Constant
Bit rate                                 : 128 Kbps
Channel(s)                               : 2 channels
Channel positions                        : Front: L R
Sampling rate                            : 48.0 KHz
Frame rate                               : 46.875 fps (1024 spf)
Compression mode                         : Lossy
Stream size                              : 39.4 MiB (10%)
Title                                    : RARBG.COM - Timeless.S01E15.WEBRip.x264-RARBG
Language                                 : English
Default                                  : Yes
Alternate group                          : 1
Encoded date                             : UTC 2017-02-14 18:45:31
Tagged date                              : UTC 2017-02-14 18:45:31



[/mediainfo]
Download
File Container: MP4
Video/Audio Codec: H264 (HIGH) (AVC1) AAC (LC) (MP4A)
Video Resolution: 720x400
http://rapidrar.com/msfa5wv7n49v
http://nitroflare.com/view/86B0C0CC746489D/2_Eng.www.RapidMovieZ.com.srt
http://uploaded.net/file/kdvjb7d7
http://openload.co/f/eqIAgHmZ5Tc/2_Eng.www.RapidMovieZ.com.srt
http://uploadrocket.net/wt77zvxr5lhm
http://clicknupload.link/plji2dn38abg
Watch Online [MP4]
All releases of "Timeless"

Show us some love

Leave a Comment

Latest Episodes

Popular Movies and TV Shows

Recent Comments

Archives