Turn - Saison 1 | American Body Shop | (2017) HDTrailer Journey 3: From the Earth ..
Sign Up   |   Sign In  

Announcements

Want to support us?
Buy a RapidRAR account from our resellers:
Buy or renew a NitroFlare account via THIS LINK

02/12

2017

No

Comments

The Vampire Diaries S08E12 720p WEBRip DD5 1 x264-FGT
[RR/NF/UL/UR]
Size: 2.6GB mkv H264 (HIGH) / EAC3  HD  1280x720

The Vampire Diaries
Click on the image to see full size
[RR/NF/UL/UR] The Vampire Diaries S08E12 720p WEBRip DD5 1 x264-FGT (2.6GB) - Snapshot 1
File Information
[URL=http://imagecurl.com/viewer.php?file=86861203620401124747.png][IMG]http://imagecurl.com/images/86861203620401124747_thumb.png[/IMG][/URL]
[URL=http://imagecurl.com/viewer.php?file=20343242368828277206.png][IMG]http://imagecurl.com/images/20343242368828277206_thumb.png[/IMG][/URL]
[URL=http://imagecurl.com/viewer.php?file=27970929495306514999.png][IMG]http://imagecurl.com/images/27970929495306514999_thumb.png[/IMG][/URL]
[URL=http://imagecurl.com/viewer.php?file=77606450053826698948.png][IMG]http://imagecurl.com/images/77606450053826698948_thumb.png[/IMG][/URL]
[URL=http://imagecurl.com/viewer.php?file=76010822796978658882.png][IMG]http://imagecurl.com/images/76010822796978658882_thumb.png[/IMG][/URL]
[URL=http://imagecurl.com/viewer.php?file=47759792281160316095.png][IMG]http://imagecurl.com/images/47759792281160316095_thumb.png[/IMG][/URL]



[mediainfo]
Video
ID                                       : 1
Format                                   : AVC
Format/Info                              : Advanced Video Codec
Format profile                           : [email protected]
Format settings, CABAC                   : Yes
Format settings, ReFrames                : 9 frames
Codec ID                                 : V_MPEG4/ISO/AVC
Duration                                 : 41mn 49s
Bit rate                                 : 8 207 Kbps
Width                                    : 1 280 pixels
Height                                   : 720 pixels
Display aspect ratio                     : 16:9
Frame rate mode                          : Constant
Frame rate                               : 23.976 (24000/1001) fps
Color space                              : YUV
Chroma subsampling                       : 4:2:0
Bit depth                                : 8 bits
Scan type                                : Progressive
Bits/(Pixel*Frame)                       : 0.371
Stream size                              : 2.40 GiB (91%)
Writing library                          : x264 core 148 r2721+55 e19946b t_mod_Custom [[email protected] X86_64]
 Encoding settings                        : cabac=1 / ref=9 / deblock=1:-3:-3 / analyse=0x3:0x133 / me=umh / subme=10 / psy=1 / fade_compensate=0.00 / psy_rd=1.00:0.00 / mixed_ref=1 / me_range=24 / chroma_me=1 / trellis=2 / 8x8dct=1 / cqm=0 / deadz / fast pskip=0 / chroma_qp_offset=-2 / threads=8 / lookahead_threads=1 / sliced_threads=0 / nr=0 / decimate=0 / interlaced=0 / bluray_compat=0 / c / fgo=0 / bframes=9 / b_pyramid=2 / b_adapt=2 / b_bias=0 / direct=3 / weightb=1 / open_gop=0 / weightp=2 / keyint=250 / keyint_min=23 / scenecut=40 / intra_refresh=0 / rc_lookahead=60 / rc=crf / mbtree=0 / crf=16.0000 / qcomp=0.60 / qpmin=0:0:0 / qpmax=69:69:69 / qpstep=4 / vbv_maxrate=62500 / vbv_bufsize=78125 / crf_max=0.0 / nal_hrd=none / filler=0 / ip_ratio=1.40 / pb_ratio=1.30 / aq=3:0.70 / aq-sensitivity=10.00 / aq-factor=1.00:1.00:1.00 / aq2=0 / aq3=0
Language                                 : English
Default                                  : Yes
Forced                                   : No

Audio
ID                                       : 2
Format                                   : E-AC-3
Format/Info                              : Audio Coding 3
Format settings, Endianness              : Big
Codec ID                                 : A_EAC3
Duration                                 : 41mn 48s
Bit rate mode                            : Constant
Bit rate                                 : 640 Kbps
Channel(s)                               : 6 channels
Channel positions                        : Front: L C R, Side: L R, LFE
Sampling rate                            : 48.0 KHz
Frame rate                               : 187.500 fps (256 spf)
Compression mode                         : Lossy
Stream size                              : 191 MiB (7%)
Language                                 : English
Default                                  : Yes
Forced                                   : No

Text
ID                                       : 3
Format                                   : UTF-8
Codec ID                                 : S_TEXT/UTF8
Codec ID/Info                            : UTF-8 Plain Text
Language                                 : English
Default                                  : No
Forced                                   : No



[/mediainfo]
Download
File Container: MKV
Video/Audio Codec: H264 (HIGH) EAC3
Video Resolution: 1280x720

Show us some love

Leave a Comment

  • (never displayed)
  •  
        Members don't see captchas. Sign Up / Sign In
  • Notify me via email when someone responds.
  • Subscribe my Feeds
  • Facebook

Latest Episodes

Popular Movies and TV Shows

  • Legion
  • The 100
  • The Expanse
  • Passengers
  • Assassin's Creed
  • Kingdom of Shadows
  • Arrow
  • Suits
  • Blindspot
  • Fursonas
  • Jackie
  • Harry & Snowman
  • Lethal Weapon
  • Modern Family
  • The Magicians
  • Tales of Beatrix Potter
  • Man Down
  • Crime d'amour
  • The Flash
  • Agents of S.H.I.E.L.D.
  • Legends of Tomorrow
  • My Summer of Love
  • Trespass Against Us
  • American Violence
  • Supergirl

Recent Comments

  • x265Addict:

    x265 Please. Do ASAP.

  • zoQiQ:

    Please, can you add "SIX.Part.6.480p.HDTV.x264-RMTeam" ?

  • thaone:

    Thanks

  • Guestfibly: guest test post bbcode <a href="http://googlee.te/">html</a> http://googlee...
  • Paul Doyle:

    End Chopped off yet again on RMX release
    any chance of letting it finish

  • peyman:

    DCs Legends of Tomorrow S02E12 1080p HDTV HEVC x265-RMTeam please

  • xiuxiuejar:

    Hi can anyone guide me to some links for Deadpool ul.to please. Thanks.

  • TonyS: This is a PROPAGANDA FILM ! If you are looking for FACTS you won't find them here ! Constant referen...
  • FREd: Rigo,TheFlashx265, h.265 isn't magic, and at best only double efficiency. The hevc high bitrate r...
  • TonyS: Clearly a BULLSHIT STORY that leaves out the fact that 3 BOMBS WERE FOUND ! I remember it from the ...