The Legend of Secret Pass | Sneaky Pete | Divorce S01E10
Sign Up   |   Sign In  

Announcements

Want to support us?
Buy a RapidRAR account from our resellers:
Buy or renew a NitroFlare account via THIS LINK

02/16

2017

No

Comments

The Magicians S02E04 720p WEB-DL DD5 1 H264-RARBG
[RR/NF/UL/UR/CU]
Size: 1.3GB mkv H264 (HIGH) / AC3  HD  1280x720

The Magicians
Click on the image to see full size
[RR/NF/UL/UR/CU] The Magicians S02E04 720p WEB-DL DD5 1 H264-RARBG (1.3GB) - Snapshot 1
File Information
[URL=http://imagecurl.com/viewer.php?file=50287880286629996595.png][IMG]http://imagecurl.com/images/50287880286629996595_thumb.png[/IMG][/URL]
[URL=http://imagecurl.com/viewer.php?file=80370902331119051718.png][IMG]http://imagecurl.com/images/80370902331119051718_thumb.png[/IMG][/URL]
[URL=http://imagecurl.com/viewer.php?file=29905615825370984118.png][IMG]http://imagecurl.com/images/29905615825370984118_thumb.png[/IMG][/URL]
[URL=http://imagecurl.com/viewer.php?file=40157739896176238929.png][IMG]http://imagecurl.com/images/40157739896176238929_thumb.png[/IMG][/URL]
[URL=http://imagecurl.com/viewer.php?file=02203078134552884690.png][IMG]http://imagecurl.com/images/02203078134552884690_thumb.png[/IMG][/URL]
[URL=http://imagecurl.com/viewer.php?file=97961146702654211081.png][IMG]http://imagecurl.com/images/97961146702654211081_thumb.png[/IMG][/URL]



[mediainfo]
Video
ID                                       : 1
Format                                   : AVC
Format/Info                              : Advanced Video Codec
Format profile                           : [email protected]
Format settings, CABAC                   : No
Format settings, ReFrames                : 2 frames
Codec ID                                 : V_MPEG4/ISO/AVC
Duration                                 : 43mn 2s
Bit rate                                 : 3 959 Kbps
Width                                    : 1 280 pixels
Height                                   : 720 pixels
Display aspect ratio                     : 16:9
Frame rate mode                          : Constant
Frame rate                               : 23.976 fps
Color space                              : YUV
Chroma subsampling                       : 4:2:0
Bit depth                                : 8 bits
Scan type                                : Progressive
Bits/(Pixel*Frame)                       : 0.179
Stream size                              : 1.19 GiB (89%)
Title                                    : The.Magicians.S02E04.720p.WEB-DL.DD5.1.H264-RARBG
Language                                 : English
Default                                  : Yes
Forced                                   : No
Color range                              : Limited
Color primaries                          : BT.709
Transfer characteristics                 : BT.709
Matrix coefficients                      : BT.709

Audio
ID                                       : 2
Format                                   : AC-3
Format/Info                              : Audio Coding 3
Mode extension                           : CM (complete main)
Format settings, Endianness              : Big
Codec ID                                 : A_AC3
Duration                                 : 43mn 2s
Bit rate mode                            : Constant
Bit rate                                 : 384 Kbps
Channel(s)                               : 6 channels
Channel positions                        : Front: L C R, Side: L R, LFE
Sampling rate                            : 48.0 KHz
Frame rate                               : 31.250 fps (1536 spf)
Compression mode                         : Lossy
Stream size                              : 118 MiB (9%)
Title                                    : The.Magicians.S02E04.720p.WEB-DL.DD5.1.H264-RARBG
Language                                 : English
Default                                  : Yes
Forced                                   : No

Text #1
ID                                       : 3
Format                                   : UTF-8
Codec ID                                 : S_TEXT/UTF8
Codec ID/Info                            : UTF-8 Plain Text
Language                                 : English
Default                                  : Yes
Forced                                   : No

Text #2
ID                                       : 4
Format                                   : UTF-8
Codec ID                                 : S_TEXT/UTF8
Codec ID/Info                            : UTF-8 Plain Text
Title                                    : SDH
Language                                 : English
Default                                  : No
Forced                                   : No



[/mediainfo]
Download
File Container: MKV
Video/Audio Codec: H264 (HIGH) AC3
Video Resolution: 1280x720
http://rapidrar.com/xrdq55sv9mwj http://rapidrar.com/r280v3m2fc57
http://nitroflare.com/view/DC3FCDE567D59CC/The.Magicians.S02E04.720p.WEB-DL.DD5.1.H264-RARBG-SDH.www.RapidMovieZ.com.srt http://nitroflare.com/view/19986E757BB1D8E/The.Magicians.S02E04.720p.WEB-DL.DD5.1.H264-RARBG.www.RapidMovieZ.com.srt
http://uploaded.net/file/3t0z0yzg http://uploaded.net/file/cbyeg4eo
http://uploadrocket.net/xjkwk565arbd http://uploadrocket.net/9i9jssdf1flk
http://clicknupload.link/s9hjxdh8idxn http://clicknupload.link/nuc148xy973k
All releases of "The Magicians"

Show us some love

Leave a Comment

  • (never displayed)
  •  
        Members don't see captchas. Sign Up / Sign In
  • Notify me via email when someone responds.

Latest Episodes

Popular Movies and TV Shows

Recent Comments

Archives