The Last Family 2016 1080p BluRay x264-ROVERS[EtHD] | The Waterboys - This Is the Sea [FLAC RemEd2CD] [Isohunt.to] | demi lowe
Sign Up   |   Sign In  

Announcements

Want to support us?
Buy a RapidRAR account from our resellers:
Buy or renew a NitroFlare account via THIS LINK

02/16

2017

No

Comments

The Magicians S02E04 1080p WEB-DL DD5 1 H264-RARBG
[RR/NF/UL/UR]
Size: 1.6GB mkv H264 (HIGH) / AC3  HD  1920x1080

The Magicians
Click on the image to see full size
[RR/NF/UL/UR] The Magicians S02E04 1080p WEB-DL DD5 1 H264-RARBG (1.6GB) - Snapshot 1
File Information
[URL=http://imagecurl.com/viewer.php?file=13380128171249930379.png][IMG]http://imagecurl.com/images/13380128171249930379_thumb.png[/IMG][/URL]
[URL=http://imagecurl.com/viewer.php?file=30111077163137112476.png][IMG]http://imagecurl.com/images/30111077163137112476_thumb.png[/IMG][/URL]
[URL=http://imagecurl.com/viewer.php?file=50188531199223688291.png][IMG]http://imagecurl.com/images/50188531199223688291_thumb.png[/IMG][/URL]
[URL=http://imagecurl.com/viewer.php?file=48037879417662097087.png][IMG]http://imagecurl.com/images/48037879417662097087_thumb.png[/IMG][/URL]
[URL=http://imagecurl.com/viewer.php?file=37667924650894341684.png][IMG]http://imagecurl.com/images/37667924650894341684_thumb.png[/IMG][/URL]
[URL=http://imagecurl.com/viewer.php?file=07955341612262245165.png][IMG]http://imagecurl.com/images/07955341612262245165_thumb.png[/IMG][/URL]



[mediainfo]
Video
ID                                       : 1
Format                                   : AVC
Format/Info                              : Advanced Video Codec
Format profile                           : [email protected]
Format settings, CABAC                   : Yes
Format settings, ReFrames                : 4 frames
Codec ID                                 : V_MPEG4/ISO/AVC
Duration                                 : 43mn 2s
Bit rate                                 : 4 882 Kbps
Width                                    : 1 920 pixels
Height                                   : 1 080 pixels
Display aspect ratio                     : 16:9
Frame rate mode                          : Constant
Frame rate                               : 23.976 fps
Color space                              : YUV
Chroma subsampling                       : 4:2:0
Bit depth                                : 8 bits
Scan type                                : Progressive
Bits/(Pixel*Frame)                       : 0.098
Stream size                              : 1.47 GiB (91%)
Title                                    : The.Magicians.S02E04.1080p.WEB-DL.DD5.1.H264-RARBG
Language                                 : English
Default                                  : Yes
Forced                                   : No
Color range                              : Limited
Color primaries                          : BT.709
Transfer characteristics                 : BT.709
Matrix coefficients                      : BT.709

Audio
ID                                       : 2
Format                                   : AC-3
Format/Info                              : Audio Coding 3
Mode extension                           : CM (complete main)
Format settings, Endianness              : Big
Codec ID                                 : A_AC3
Duration                                 : 43mn 2s
Bit rate mode                            : Constant
Bit rate                                 : 384 Kbps
Channel(s)                               : 6 channels
Channel positions                        : Front: L C R, Side: L R, LFE
Sampling rate                            : 48.0 KHz
Frame rate                               : 31.250 fps (1536 spf)
Compression mode                         : Lossy
Stream size                              : 118 MiB (7%)
Title                                    : The.Magicians.S02E04.1080p.WEB-DL.DD5.1.H264-RARBG
Language                                 : English
Default                                  : Yes
Forced                                   : No

Text #1
ID                                       : 3
Format                                   : UTF-8
Codec ID                                 : S_TEXT/UTF8
Codec ID/Info                            : UTF-8 Plain Text
Language                                 : English
Default                                  : Yes
Forced                                   : No

Text #2
ID                                       : 4
Format                                   : UTF-8
Codec ID                                 : S_TEXT/UTF8
Codec ID/Info                            : UTF-8 Plain Text
Title                                    : SDH
Language                                 : English
Default                                  : No
Forced                                   : No



[/mediainfo]
Download
File Container: MKV
Video/Audio Codec: H264 (HIGH) AC3
Video Resolution: 1920x1080
http://rapidrar.com/r3vgx09t2sa1 http://rapidrar.com/jy4g9jbp3nob
http://nitroflare.com/view/C2456227490F8E1/The.Magicians.S02E04.1080p.WEB-DL.DD5.1.H264-RARBG-SDH.www.RapidMovieZ.com.srt http://nitroflare.com/view/3C11CA834A834EF/The.Magicians.S02E04.1080p.WEB-DL.DD5.1.H264-RARBG.www.RapidMovieZ.com.srt
http://uploaded.net/file/i0ibwfi4 http://uploaded.net/file/0gg5jiao
http://uploadrocket.net/1355is1x02ky http://uploadrocket.net/aeartb1obbv7
All releases of "The Magicians"

Show us some love

Leave a Comment

  • (never displayed)
  •  
        Members don't see captchas. Sign Up / Sign In
  • Notify me via email when someone responds.

Latest Episodes

Popular Movies and TV Shows

Recent Comments

Archives