Two Lovers and a Bear | Killer Women | Danai Gurira
Sign Up   |   Sign In  

Announcements

Want to support us?
Buy a RapidRAR account from our resellers:
Buy or renew a NitroFlare account via THIS LINK

02/17

2017

No

Comments

The Expanse S02E04 1080p WEB-DL DD5 1 H264-RARBG
[RR/NF/UL/UR/CU]
Size: 1.6GB mkv H264 (HIGH) / AC3  HD  1920x1080

The Expanse
Click on the image to see full size
[RR/NF/UL/UR/CU] The Expanse S02E04 1080p WEB-DL DD5 1 H264-RARBG (1.6GB) - Snapshot 1
File Information
[URL=http://imagecurl.com/viewer.php?file=14684941590818167030.png][IMG]http://imagecurl.com/images/14684941590818167030_thumb.png[/IMG][/URL]
[URL=http://imagecurl.com/viewer.php?file=00616864410110557465.png][IMG]http://imagecurl.com/images/00616864410110557465_thumb.png[/IMG][/URL]
[URL=http://imagecurl.com/viewer.php?file=00660895642758667785.png][IMG]http://imagecurl.com/images/00660895642758667785_thumb.png[/IMG][/URL]
[URL=http://imagecurl.com/viewer.php?file=26834747501742853929.png][IMG]http://imagecurl.com/images/26834747501742853929_thumb.png[/IMG][/URL]
[URL=http://imagecurl.com/viewer.php?file=46488047466576821894.png][IMG]http://imagecurl.com/images/46488047466576821894_thumb.png[/IMG][/URL]
[URL=http://imagecurl.com/viewer.php?file=60296950325795469698.png][IMG]http://imagecurl.com/images/60296950325795469698_thumb.png[/IMG][/URL]



[mediainfo]
Video
ID                                       : 1
Format                                   : AVC
Format/Info                              : Advanced Video Codec
Format profile                           : [email protected]
Format settings, CABAC                   : Yes
Format settings, ReFrames                : 4 frames
Codec ID                                 : V_MPEG4/ISO/AVC
Duration                                 : 42mn 20s
Bit rate                                 : 5 057 Kbps
Width                                    : 1 920 pixels
Height                                   : 1 080 pixels
Display aspect ratio                     : 16:9
Frame rate mode                          : Constant
Frame rate                               : 23.976 fps
Color space                              : YUV
Chroma subsampling                       : 4:2:0
Bit depth                                : 8 bits
Scan type                                : Progressive
Bits/(Pixel*Frame)                       : 0.102
Stream size                              : 1.50 GiB (91%)
Title                                    : The.Expanse.S02E04.1080p.WEB-DL.DD5.1.H264-RARBG
Language                                 : English
Default                                  : Yes
Forced                                   : No
Color range                              : Limited
Color primaries                          : BT.709
Transfer characteristics                 : BT.709
Matrix coefficients                      : BT.709

Audio
ID                                       : 2
Format                                   : AC-3
Format/Info                              : Audio Coding 3
Mode extension                           : CM (complete main)
Format settings, Endianness              : Big
Codec ID                                 : A_AC3
Duration                                 : 42mn 20s
Bit rate mode                            : Constant
Bit rate                                 : 384 Kbps
Channel(s)                               : 6 channels
Channel positions                        : Front: L C R, Side: L R, LFE
Sampling rate                            : 48.0 KHz
Frame rate                               : 31.250 fps (1536 spf)
Compression mode                         : Lossy
Stream size                              : 116 MiB (7%)
Title                                    : The.Expanse.S02E04.1080p.WEB-DL.DD5.1.H264-RARBG
Language                                 : English
Default                                  : Yes
Forced                                   : No

Text #1
ID                                       : 3
Format                                   : UTF-8
Codec ID                                 : S_TEXT/UTF8
Codec ID/Info                            : UTF-8 Plain Text
Language                                 : English
Default                                  : Yes
Forced                                   : No

Text #2
ID                                       : 4
Format                                   : UTF-8
Codec ID                                 : S_TEXT/UTF8
Codec ID/Info                            : UTF-8 Plain Text
Title                                    : SDH
Language                                 : English
Default                                  : No
Forced                                   : No



[/mediainfo]
Download
File Container: MKV
Video/Audio Codec: H264 (HIGH) AC3
Video Resolution: 1920x1080
http://rapidrar.com/2w6uf4wu8usz http://rapidrar.com/b96u5ds5k4uy
http://nitroflare.com/view/3C3FED7D8FF9F27/The.Expanse.S02E04.1080p.WEB-DL.DD5.1.H264-RARBG-SDH.www.RapidMovieZ.com.srt http://nitroflare.com/view/5CB6EB2E5EE9BAE/The.Expanse.S02E04.1080p.WEB-DL.DD5.1.H264-RARBG.www.RapidMovieZ.com.srt
http://uploaded.net/file/fozgzpk6 http://uploaded.net/file/swrhnwl6
http://uploadrocket.net/va13kll9j9au http://uploadrocket.net/la23d7thm64c
http://clicknupload.link/qg0f90rbuoxq http://clicknupload.link/p1nd3rhdwnwr
All releases of "The Expanse"

Show us some love

Leave a Comment

  • (never displayed)
  •  
        Members don't see captchas. Sign Up / Sign In
  • Notify me via email when someone responds.

Latest Episodes

Popular Movies and TV Shows

Recent Comments

Archives