Telecharger Wilson French Film Torrent | Thế giới quanh ta | My Crazy Sex S01E06
Sign Up   |   Sign In  

Announcements

Want to support us?
Buy a RapidRAR account from our resellers:
Buy or renew a NitroFlare account via THIS LINK

02/17

2017

2

Comments

The Blacklist S04E14 720p WEB-DL DD5 1 H264-RARBG
[RR/NF/UL/UR]
Size: 1.4GB mkv H264 (HIGH) / AC3  HD  1280x718

The Blacklist
Click on the image to see full size
[RR/NF/UL/UR] The Blacklist S04E14 720p WEB-DL DD5 1 H264-RARBG (1.4GB) - Snapshot 1
File Information
[URL=http://imagecurl.com/viewer.php?file=13865434381372292362.png][IMG]http://imagecurl.com/images/13865434381372292362_thumb.png[/IMG][/URL]
[URL=http://imagecurl.com/viewer.php?file=38048288469648892407.png][IMG]http://imagecurl.com/images/38048288469648892407_thumb.png[/IMG][/URL]
[URL=http://imagecurl.com/viewer.php?file=74638792877645509737.png][IMG]http://imagecurl.com/images/74638792877645509737_thumb.png[/IMG][/URL]
[URL=http://imagecurl.com/viewer.php?file=16534107387343915634.png][IMG]http://imagecurl.com/images/16534107387343915634_thumb.png[/IMG][/URL]
[URL=http://imagecurl.com/viewer.php?file=10276429690437606716.png][IMG]http://imagecurl.com/images/10276429690437606716_thumb.png[/IMG][/URL]
[URL=http://imagecurl.com/viewer.php?file=50600073878542379180.png][IMG]http://imagecurl.com/images/50600073878542379180_thumb.png[/IMG][/URL]



[mediainfo]
Video
ID                                       : 1
Format                                   : AVC
Format/Info                              : Advanced Video Codec
Format profile                           : [email protected]
Format settings, CABAC                   : No
Format settings, ReFrames                : 2 frames
Codec ID                                 : V_MPEG4/ISO/AVC
Duration                                 : 43mn 2s
Bit rate                                 : 4 027 Kbps
Width                                    : 1 280 pixels
Height                                   : 718 pixels
Display aspect ratio                     : 16:9
Frame rate mode                          : Constant
Frame rate                               : 23.976 fps
Color space                              : YUV
Chroma subsampling                       : 4:2:0
Bit depth                                : 8 bits
Scan type                                : Progressive
Bits/(Pixel*Frame)                       : 0.183
Stream size                              : 1.21 GiB (89%)
Title                                    : The.Blacklist.S04E14.720p.WEB-DL.DD5.1.H264-RARBG
Language                                 : English
Default                                  : Yes
Forced                                   : No
Color range                              : Limited
Color primaries                          : BT.709
Transfer characteristics                 : BT.709
Matrix coefficients                      : BT.709

Audio
ID                                       : 2
Format                                   : AC-3
Format/Info                              : Audio Coding 3
Mode extension                           : CM (complete main)
Format settings, Endianness              : Big
Codec ID                                 : A_AC3
Duration                                 : 43mn 2s
Bit rate mode                            : Constant
Bit rate                                 : 384 Kbps
Channel(s)                               : 6 channels
Channel positions                        : Front: L C R, Side: L R, LFE
Sampling rate                            : 48.0 KHz
Frame rate                               : 31.250 fps (1536 spf)
Compression mode                         : Lossy
Stream size                              : 118 MiB (9%)
Title                                    : The.Blacklist.S04E14.720p.WEB-DL.DD5.1.H264-RARBG
Language                                 : English
Default                                  : Yes
Forced                                   : No

Text #1
ID                                       : 3
Format                                   : UTF-8
Codec ID                                 : S_TEXT/UTF8
Codec ID/Info                            : UTF-8 Plain Text
Language                                 : English
Default                                  : Yes
Forced                                   : No

Text #2
ID                                       : 4
Format                                   : UTF-8
Codec ID                                 : S_TEXT/UTF8
Codec ID/Info                            : UTF-8 Plain Text
Title                                    : SDH
Language                                 : English
Default                                  : No
Forced                                   : No



[/mediainfo]
Download
File Container: MKV
Video/Audio Codec: H264 (HIGH) AC3
Video Resolution: 1280x718
http://rapidrar.com/keryak0318hx http://rapidrar.com/v5xwlmriaj4f
http://nitroflare.com/view/291EFFE9BBCB528/The.Blacklist.S04E14.720p.WEB-DL.DD5.1.H264-RARBG-SDH.www.RapidMovieZ.com.srt http://nitroflare.com/view/296CAB918FD0968/The.Blacklist.S04E14.720p.WEB-DL.DD5.1.H264-RARBG.www.RapidMovieZ.com.srt
http://uploaded.net/file/3bu396n7 http://uploaded.net/file/m9245n5c
http://uploadrocket.net/jt1xgrdev1x1 http://uploadrocket.net/jiv4nuinxow5
All releases of "The Blacklist"

Show us some love

2 Responses to "[RR/NF/UL/UR] The Blacklist S04E14 720p WEB-DL DD5 1 H264-RARBG (1.4GB)"
02/18/17
20:31:44
Admin

RapidRAR re-uploaded with new RAR file(s) (users who couldn't download some parts need to download all parts again).

02/20/17
18:10:22
Admin

RapidRAR re-uploaded with new RAR file(s) (users who couldn't download some parts need to download all parts again).

Leave a Comment

  • (never displayed)
  •  
        Members don't see captchas. Sign Up / Sign In
  • Notify me via email when someone responds.

Latest Episodes

Popular Movies and TV Shows

Recent Comments

Archives