El Comandante Cap 04 Latino YG [Isohunt.to] | [한글] 과학닌자대 갓챠맨 Gatchaman OVA.1994.x264.A… | BitLord.com
Sign Up   |   Sign In  

Announcements

Want to support us?
Buy a RapidRAR account from our resellers:
Buy or renew a NitroFlare account via THIS LINK

02/17

2017

No

Comments

The 100 S04E03 720p WEB-DL DD5 1 H264-RARBG
[RR/NF/UL/UR/CU]
Size: 1.3GB mkv H264 (HIGH) / AC3  HD  1280x718

The 100
Click on the image to see full size
[RR/NF/UL/UR/CU] The 100 S04E03 720p WEB-DL DD5 1 H264-RARBG (1.3GB) - Snapshot 1
File Information
[URL=http://imagecurl.com/viewer.php?file=66255015740329544385.png][IMG]http://imagecurl.com/images/66255015740329544385_thumb.png[/IMG][/URL]
[URL=http://imagecurl.com/viewer.php?file=10184697423212160202.png][IMG]http://imagecurl.com/images/10184697423212160202_thumb.png[/IMG][/URL]
[URL=http://imagecurl.com/viewer.php?file=16262881349738293844.png][IMG]http://imagecurl.com/images/16262881349738293844_thumb.png[/IMG][/URL]
[URL=http://imagecurl.com/viewer.php?file=86612632931551571998.png][IMG]http://imagecurl.com/images/86612632931551571998_thumb.png[/IMG][/URL]
[URL=http://imagecurl.com/viewer.php?file=22950575472650786346.png][IMG]http://imagecurl.com/images/22950575472650786346_thumb.png[/IMG][/URL]
[URL=http://imagecurl.com/viewer.php?file=61235748184524179040.png][IMG]http://imagecurl.com/images/61235748184524179040_thumb.png[/IMG][/URL]



[mediainfo]
Video
ID                                       : 1
Format                                   : AVC
Format/Info                              : Advanced Video Codec
Format profile                           : [email protected]
Format settings, CABAC                   : No
Format settings, ReFrames                : 2 frames
Codec ID                                 : V_MPEG4/ISO/AVC
Duration                                 : 41mn 49s
Bit rate                                 : 4 028 Kbps
Width                                    : 1 280 pixels
Height                                   : 718 pixels
Display aspect ratio                     : 16:9
Frame rate mode                          : Constant
Frame rate                               : 23.976 fps
Color space                              : YUV
Chroma subsampling                       : 4:2:0
Bit depth                                : 8 bits
Scan type                                : Progressive
Bits/(Pixel*Frame)                       : 0.183
Stream size                              : 1.18 GiB (89%)
Title                                    : The.100.S04E03.720p.WEB-DL.DD5.1.H264-RARBG
Language                                 : English
Default                                  : Yes
Forced                                   : No
Color range                              : Limited
Color primaries                          : BT.709
Transfer characteristics                 : BT.709
Matrix coefficients                      : BT.709

Audio
ID                                       : 2
Format                                   : AC-3
Format/Info                              : Audio Coding 3
Mode extension                           : CM (complete main)
Format settings, Endianness              : Big
Codec ID                                 : A_AC3
Duration                                 : 41mn 49s
Bit rate mode                            : Constant
Bit rate                                 : 384 Kbps
Channel(s)                               : 6 channels
Channel positions                        : Front: L C R, Side: L R, LFE
Sampling rate                            : 48.0 KHz
Frame rate                               : 31.250 fps (1536 spf)
Compression mode                         : Lossy
Stream size                              : 115 MiB (9%)
Title                                    : The.100.S04E03.720p.WEB-DL.DD5.1.H264-RARBG
Language                                 : English
Default                                  : Yes
Forced                                   : No

Text #1
ID                                       : 3
Format                                   : UTF-8
Codec ID                                 : S_TEXT/UTF8
Codec ID/Info                            : UTF-8 Plain Text
Language                                 : English
Default                                  : Yes
Forced                                   : No

Text #2
ID                                       : 4
Format                                   : UTF-8
Codec ID                                 : S_TEXT/UTF8
Codec ID/Info                            : UTF-8 Plain Text
Title                                    : SDH
Language                                 : English
Default                                  : No
Forced                                   : No



[/mediainfo]
Download
File Container: MKV
Video/Audio Codec: H264 (HIGH) AC3
Video Resolution: 1280x718
http://rapidrar.com/lsqsvtha7nla http://rapidrar.com/s62fe4u729i0
http://nitroflare.com/view/4FF0E093B041DA0/The.100.S04E03.720p.WEB-DL.DD5.1.H264-RARBG-SDH.www.RapidMovieZ.com.srt http://nitroflare.com/view/496649B04094ECE/The.100.S04E03.720p.WEB-DL.DD5.1.H264-RARBG.www.RapidMovieZ.com.srt
http://uploaded.net/file/yxvdaq9r http://uploaded.net/file/y7v1io7h
http://uploadrocket.net/oddbik1pa18a http://uploadrocket.net/8pa86gvohkwj
http://clicknupload.link/uad2kt6037bv http://clicknupload.link/ly6ncelny7g6
All releases of "The 100"

Show us some love

Leave a Comment

  • (never displayed)
  •  
        Members don't see captchas. Sign Up / Sign In
  • Notify me via email when someone responds.

Latest Episodes

Popular Movies and TV Shows

Recent Comments

Archives