Nunca es demasiado tarde (Still Life) | La casa magica (Le manoir magique) | Magic symphony
Sign Up   |   Sign In  

Announcements

Want to support us?
Buy a RapidRAR account from our resellers:
Buy or renew a NitroFlare account via THIS LINK

02/17

2017

No

Comments

The 100 S04E03 1080p WEB-DL DD5 1 H264-RARBG
[RR/NF/UL/UR/CU]
Size: 1.6GB mkv H264 (HIGH) / AC3  HD  1912x1072

The 100
Click on the image to see full size
[RR/NF/UL/UR/CU] The 100 S04E03 1080p WEB-DL DD5 1 H264-RARBG (1.6GB) - Snapshot 1
File Information
[URL=http://imagecurl.com/viewer.php?file=71738261922081252001.png][IMG]http://imagecurl.com/images/71738261922081252001_thumb.png[/IMG][/URL]
[URL=http://imagecurl.com/viewer.php?file=05118420003870909819.png][IMG]http://imagecurl.com/images/05118420003870909819_thumb.png[/IMG][/URL]
[URL=http://imagecurl.com/viewer.php?file=78283014189161267743.png][IMG]http://imagecurl.com/images/78283014189161267743_thumb.png[/IMG][/URL]
[URL=http://imagecurl.com/viewer.php?file=29628953248557660572.png][IMG]http://imagecurl.com/images/29628953248557660572_thumb.png[/IMG][/URL]
[URL=http://imagecurl.com/viewer.php?file=80537289987737947500.png][IMG]http://imagecurl.com/images/80537289987737947500_thumb.png[/IMG][/URL]
[URL=http://imagecurl.com/viewer.php?file=15668872167858178398.png][IMG]http://imagecurl.com/images/15668872167858178398_thumb.png[/IMG][/URL]



[mediainfo]
Video
ID                                       : 1
Format                                   : AVC
Format/Info                              : Advanced Video Codec
Format profile                           : [email protected]
Format settings, CABAC                   : Yes
Format settings, ReFrames                : 4 frames
Codec ID                                 : V_MPEG4/ISO/AVC
Duration                                 : 41mn 49s
Bit rate                                 : 5 111 Kbps
Width                                    : 1 912 pixels
Height                                   : 1 072 pixels
Display aspect ratio                     : 16:9
Frame rate mode                          : Constant
Frame rate                               : 23.976 fps
Color space                              : YUV
Chroma subsampling                       : 4:2:0
Bit depth                                : 8 bits
Scan type                                : Progressive
Bits/(Pixel*Frame)                       : 0.104
Stream size                              : 1.49 GiB (91%)
Title                                    : The.100.S04E03.1080p.WEB-DL.DD5.1.H264-RARBG
Language                                 : English
Default                                  : Yes
Forced                                   : No
Color range                              : Limited
Color primaries                          : BT.709
Transfer characteristics                 : BT.709
Matrix coefficients                      : BT.709

Audio
ID                                       : 2
Format                                   : AC-3
Format/Info                              : Audio Coding 3
Mode extension                           : CM (complete main)
Format settings, Endianness              : Big
Codec ID                                 : A_AC3
Duration                                 : 41mn 49s
Bit rate mode                            : Constant
Bit rate                                 : 384 Kbps
Channel(s)                               : 6 channels
Channel positions                        : Front: L C R, Side: L R, LFE
Sampling rate                            : 48.0 KHz
Frame rate                               : 31.250 fps (1536 spf)
Compression mode                         : Lossy
Stream size                              : 115 MiB (7%)
Title                                    : The.100.S04E03.1080p.WEB-DL.DD5.1.H264-RARBG
Language                                 : English
Default                                  : Yes
Forced                                   : No

Text #1
ID                                       : 3
Format                                   : UTF-8
Codec ID                                 : S_TEXT/UTF8
Codec ID/Info                            : UTF-8 Plain Text
Language                                 : English
Default                                  : Yes
Forced                                   : No

Text #2
ID                                       : 4
Format                                   : UTF-8
Codec ID                                 : S_TEXT/UTF8
Codec ID/Info                            : UTF-8 Plain Text
Title                                    : SDH
Language                                 : English
Default                                  : No
Forced                                   : No



[/mediainfo]
Download
File Container: MKV
Video/Audio Codec: H264 (HIGH) AC3
Video Resolution: 1912x1072
http://rapidrar.com/hyj7v46w8cp9 http://rapidrar.com/cpp0nbc9ep1j
http://nitroflare.com/view/334582299C340C7/The.100.S04E03.1080p.WEB-DL.DD5.1.H264-RARBG-SDH.www.RapidMovieZ.com.srt http://nitroflare.com/view/16D4BEF0EF2CA8A/The.100.S04E03.1080p.WEB-DL.DD5.1.H264-RARBG.www.RapidMovieZ.com.srt
http://uploaded.net/file/3oydli9h http://uploaded.net/file/csbhhgdc
http://uploadrocket.net/hn7tda383w8y http://uploadrocket.net/bybv9nn2sf2o
http://clicknupload.link/rf0ntvphlkkq http://clicknupload.link/ayccp360eak3
All releases of "The 100"

Show us some love

Leave a Comment

  • (never displayed)
  •  
        Members don't see captchas. Sign Up / Sign In
  • Notify me via email when someone responds.

Latest Episodes

Popular Movies and TV Shows

Recent Comments

Archives