Dokumentarac: Bog čudesa | Command Conquer 4 nrg | Artes Marciales
Sign Up   |   Sign In  

Announcements

Want to support us?
Buy a RapidRAR account from our resellers:
Buy or renew a NitroFlare account via THIS LINK

02/16

2017

No

Comments

Taboo UK S01E06 1080p WEB-DL DD5 1 H264-RARBG
[RR/NF/UL/UR/CU]
Size: 2.4GB mkv H264 (HIGH) / AC3  HD  1920x1080

Taboo
Click on the image to see full size
[RR/NF/UL/UR/CU] Taboo UK S01E06 1080p WEB-DL DD5 1 H264-RARBG (2.4GB) - Snapshot 1
File Information
[URL=http://imagecurl.com/viewer.php?file=88377547436491970736.png][IMG]http://imagecurl.com/images/88377547436491970736_thumb.png[/IMG][/URL]
[URL=http://imagecurl.com/viewer.php?file=06429642818223115131.png][IMG]http://imagecurl.com/images/06429642818223115131_thumb.png[/IMG][/URL]
[URL=http://imagecurl.com/viewer.php?file=57824893530336216643.png][IMG]http://imagecurl.com/images/57824893530336216643_thumb.png[/IMG][/URL]
[URL=http://imagecurl.com/viewer.php?file=92635496469248978537.png][IMG]http://imagecurl.com/images/92635496469248978537_thumb.png[/IMG][/URL]
[URL=http://imagecurl.com/viewer.php?file=89787783421949125539.png][IMG]http://imagecurl.com/images/89787783421949125539_thumb.png[/IMG][/URL]
[URL=http://imagecurl.com/viewer.php?file=85057131261008516123.png][IMG]http://imagecurl.com/images/85057131261008516123_thumb.png[/IMG][/URL]



[mediainfo]
Video
ID                                       : 1
Format                                   : AVC
Format/Info                              : Advanced Video Codec
Format profile                           : [email protected]
Format settings, CABAC                   : Yes
Format settings, ReFrames                : 4 frames
Codec ID                                 : V_MPEG4/ISO/AVC
Duration                                 : 1h 3mn
Bit rate                                 : 4 984 Kbps
Width                                    : 1 920 pixels
Height                                   : 1 080 pixels
Display aspect ratio                     : 16:9
Frame rate mode                          : Constant
Frame rate                               : 23.976 (24000/1001) fps
Color space                              : YUV
Chroma subsampling                       : 4:2:0
Bit depth                                : 8 bits
Scan type                                : Progressive
Bits/(Pixel*Frame)                       : 0.100
Stream size                              : 2.20 GiB (91%)
Title                                    : Taboo.UK.S01E06.1080p.WEB-DL.DD5.1.H264-RARBG
Language                                 : English
Default                                  : Yes
Forced                                   : No
Color range                              : Limited
Color primaries                          : BT.709
Transfer characteristics                 : BT.709
Matrix coefficients                      : BT.709

Audio
ID                                       : 2
Format                                   : AC-3
Format/Info                              : Audio Coding 3
Mode extension                           : CM (complete main)
Format settings, Endianness              : Big
Codec ID                                 : A_AC3
Duration                                 : 1h 3mn
Bit rate mode                            : Constant
Bit rate                                 : 384 Kbps
Channel(s)                               : 6 channels
Channel positions                        : Front: L C R, Side: L R, LFE
Sampling rate                            : 48.0 KHz
Frame rate                               : 31.250 fps (1536 spf)
Compression mode                         : Lossy
Stream size                              : 174 MiB (7%)
Title                                    : Taboo.UK.S01E06.1080p.WEB-DL.DD5.1.H264-RARBG
Language                                 : English
Default                                  : Yes
Forced                                   : No

Text #1
ID                                       : 3
Format                                   : UTF-8
Codec ID                                 : S_TEXT/UTF8
Codec ID/Info                            : UTF-8 Plain Text
Language                                 : English
Default                                  : Yes
Forced                                   : No

Text #2
ID                                       : 4
Format                                   : UTF-8
Codec ID                                 : S_TEXT/UTF8
Codec ID/Info                            : UTF-8 Plain Text
Title                                    : SDH
Language                                 : English
Default                                  : No
Forced                                   : No



[/mediainfo]
Download
File Container: MKV
Video/Audio Codec: H264 (HIGH) AC3
Video Resolution: 1920x1080
http://rapidrar.com/kpv27od9hxwv http://rapidrar.com/amp7izvojas8
http://nitroflare.com/view/C6CE507C8761244/Taboo.UK.S01E06.1080p.WEB-DL.DD5.1.H264-RARBG-SDH.www.RapidMovieZ.com.srt http://nitroflare.com/view/1089F6D49FB1C4D/Taboo.UK.S01E06.1080p.WEB-DL.DD5.1.H264-RARBG.www.RapidMovieZ.com.srt
http://uploaded.net/file/btwlk544 http://uploaded.net/file/s5ttdk7n
http://uploadrocket.net/qn6jjqfmgtz4 http://uploadrocket.net/jz2l9ssac289
http://clicknupload.link/hy7tlp51qr52 http://clicknupload.link/vs1gbczr12n6
All releases of "Taboo"

Show us some love

Leave a Comment

  • (never displayed)
  •  
        Members don't see captchas. Sign Up / Sign In
  • Notify me via email when someone responds.

Latest Episodes

Popular Movies and TV Shows

Recent Comments

Archives