6941 مسلسلات اجنبي مسلسل Supergirl الموسم 2 الحلقة 12 الثانية عشر مشاهدة وتحميل الحلقة الثانية عشر 12 من الموسم الثاني 2 من مسلسل الخيال العلمي و الاكشن Supergirl مترجمة مسلسل Supergirl... 6.6 | Dark Matter | Michael Dowse
Sign Up   |   Sign In  

Announcements

Want to support us?
Buy a RapidRAR account from our resellers:
Buy or renew a NitroFlare account via THIS LINK

02/11

2017

1

Comments

Sleepy Hollow S04E06 720p WEB-DL DD5 1 H264-RARBG
[RR/NF/UL/UR/CU]
Size: 1.4GB mkv H264 (HIGH) / AC3  HD  1280x718

Sleepy Hollow
Click on the image to see full size
[RR/NF/UL/UR/CU] Sleepy Hollow S04E06 720p WEB-DL DD5 1 H264-RARBG (1.4GB) - Snapshot 1
File Information
[URL=http://imagecurl.com/viewer.php?file=16315641254284295034.png][IMG]http://imagecurl.com/images/16315641254284295034_thumb.png[/IMG][/URL]
[URL=http://imagecurl.com/viewer.php?file=34733836484402390707.png][IMG]http://imagecurl.com/images/34733836484402390707_thumb.png[/IMG][/URL]
[URL=http://imagecurl.com/viewer.php?file=47905839030921435526.png][IMG]http://imagecurl.com/images/47905839030921435526_thumb.png[/IMG][/URL]
[URL=http://imagecurl.com/viewer.php?file=02791570586569199711.png][IMG]http://imagecurl.com/images/02791570586569199711_thumb.png[/IMG][/URL]
[URL=http://imagecurl.com/viewer.php?file=45175044484443953950.png][IMG]http://imagecurl.com/images/45175044484443953950_thumb.png[/IMG][/URL]
[URL=http://imagecurl.com/viewer.php?file=22040854193747479280.png][IMG]http://imagecurl.com/images/22040854193747479280_thumb.png[/IMG][/URL]



[mediainfo]
Video
ID                                       : 1
Format                                   : AVC
Format/Info                              : Advanced Video Codec
Format profile                           : [email protected]
Format settings, CABAC                   : No
Format settings, ReFrames                : 2 frames
Codec ID                                 : V_MPEG4/ISO/AVC
Duration                                 : 44mn 2s
Bit rate                                 : 3 955 Kbps
Width                                    : 1 280 pixels
Height                                   : 718 pixels
Display aspect ratio                     : 16:9
Frame rate mode                          : Constant
Frame rate                               : 23.976 (24000/1001) fps
Color space                              : YUV
Chroma subsampling                       : 4:2:0
Bit depth                                : 8 bits
Scan type                                : Progressive
Bits/(Pixel*Frame)                       : 0.179
Stream size                              : 1.22 GiB (89%)
Title                                    : Sleepy.Hollow.S04E06.720p.WEB-DL.DD5.1.H264-RARBG
Language                                 : English
Default                                  : Yes
Forced                                   : No
Color range                              : Limited
Color primaries                          : BT.709
Transfer characteristics                 : BT.709
Matrix coefficients                      : BT.709

Audio
ID                                       : 2
Format                                   : AC-3
Format/Info                              : Audio Coding 3
Mode extension                           : CM (complete main)
Format settings, Endianness              : Big
Codec ID                                 : A_AC3
Duration                                 : 44mn 2s
Bit rate mode                            : Constant
Bit rate                                 : 384 Kbps
Channel(s)                               : 6 channels
Channel positions                        : Front: L C R, Side: L R, LFE
Sampling rate                            : 48.0 KHz
Frame rate                               : 31.250 fps (1536 spf)
Compression mode                         : Lossy
Stream size                              : 121 MiB (9%)
Title                                    : Sleepy.Hollow.S04E06.720p.WEB-DL.DD5.1.H264-RARBG
Language                                 : English
Default                                  : Yes
Forced                                   : No

Text #1
ID                                       : 3
Format                                   : UTF-8
Codec ID                                 : S_TEXT/UTF8
Codec ID/Info                            : UTF-8 Plain Text
Language                                 : English
Default                                  : Yes
Forced                                   : No

Text #2
ID                                       : 4
Format                                   : UTF-8
Codec ID                                 : S_TEXT/UTF8
Codec ID/Info                            : UTF-8 Plain Text
Title                                    : SDH
Language                                 : English
Default                                  : No
Forced                                   : No



[/mediainfo]
Download
File Container: MKV
Video/Audio Codec: H264 (HIGH) AC3
Video Resolution: 1280x718
http://rapidrar.com/tbbjhu69p03m http://rapidrar.com/ytltbzhq0q1e
http://nitroflare.com/view/76AF679EB7DBC98/Sleepy.Hollow.S04E06.720p.WEB-DL.DD5.1.H264-RARBG-SDH.www.RapidMovieZ.com.srt http://nitroflare.com/view/2C9B6EE31290A43/Sleepy.Hollow.S04E06.720p.WEB-DL.DD5.1.H264-RARBG.www.RapidMovieZ.com.srt
http://uploaded.net/file/yj5mun0x http://uploaded.net/file/kwb9dyiy
http://uploadrocket.net/ipvevhb6rq41 http://uploadrocket.net/18v6vdofdznw
http://clicknupload.link/i07py0gypyaw http://clicknupload.link/kvx1jkwi4y34
All releases of "Sleepy Hollow"

Show us some love

1 Response to "[RR/NF/UL/UR/CU] Sleepy Hollow S04E06 720p WEB-DL DD5 1 H264-RARBG (1.4GB)"
02/14/17
19:40:08
Admin

RapidRAR re-uploaded with new RAR file(s) (users who couldn't download some parts need to download all parts again).

Leave a Comment

  • (never displayed)
  •  
        Members don't see captchas. Sign Up / Sign In
  • Notify me via email when someone responds.

Latest Episodes

Popular Movies and TV Shows

Recent Comments

Archives