[VirtualRealPorn] 39 clips of virtual reality for the smartphone (180º Video) [2014-2015, All sex, POV, 3D] | Bad Santa 2 | (2016) DVD Bastille Day
Sign Up   |   Sign In  

Announcements

Want to support us?
Buy a RapidRAR account from our resellers:
Buy or renew a NitroFlare account via THIS LINK

10/03

2015

4

Comments

Saw IV 2007 UNRATED BRRip XviD MP3-RARBG
[RR/UL/180U]
Size: 1.3GB avi XVID / MP3 720x400

Saw IV
Click on the image to see full size
[RR/UL/180U] Saw IV 2007 UNRATED BRRip XviD MP3-RARBG (1.3GB) - Snapshot 1[RR/UL/180U] Saw IV 2007 UNRATED BRRip XviD MP3-RARBG (1.3GB) - Snapshot 2
File Information
[URL]http://www.imdb.com/title/tt0890870/[/URL]
[URL=http://imagecurl.com/viewer.php?file=29030682861091380837.png][IMG]http://imagecurl.com/images/29030682861091380837_thumb.png[/IMG][/URL]
[URL=http://imagecurl.com/viewer.php?file=01034789112869546420.png][IMG]http://imagecurl.com/images/01034789112869546420_thumb.png[/IMG][/URL]
[URL=http://imagecurl.com/viewer.php?file=17835120077163217257.png][IMG]http://imagecurl.com/images/17835120077163217257_thumb.png[/IMG][/URL]
[URL=http://imagecurl.com/viewer.php?file=52097753833256832761.png][IMG]http://imagecurl.com/images/52097753833256832761_thumb.png[/IMG][/URL]
[URL=http://imagecurl.com/viewer.php?file=79031390542088833883.png][IMG]http://imagecurl.com/images/79031390542088833883_thumb.png[/IMG][/URL]


[mediainfo]
Video
ID                                       : 0
Format                                   : MPEG-4 Visual
Format profile                           : [email protected]
Format settings, BVOP                    : No
Format settings, QPel                    : No
Format settings, GMC                     : No warppoints
Format settings, Matrix                  : Default (H.263)
Codec ID                                 : XVID
Codec ID/Hint                            : XviD
Duration                                 : 1h 35mn
Bit rate                                 : 1 599 Kbps
Width                                    : 720 pixels
Height                                   : 400 pixels
Display aspect ratio                     : 16:9
Frame rate                               : 23.976 fps
Color space                              : YUV
Chroma subsampling                       : 4:2:0
Bit depth                                : 8 bits
Scan type                                : Progressive
Compression mode                         : Lossy
Bits/(Pixel*Frame)                       : 0.232
Stream size                              : 1.07 GiB (89%)
Title                                    : RARBG.COM - Saw.IV.2007.UNRATED.BRRip.XviD.MP3-RARBG
Writing library                          : Lavc56.60.100

Audio
ID                                       : 1
Format                                   : MPEG Audio
Format version                           : Version 1
Format profile                           : Layer 3
Mode                                     : Joint stereo
Codec ID                                 : 55
Codec ID/Hint                            : MP3
Duration                                 : 1h 35mn
Bit rate mode                            : Constant
Bit rate                                 : 192 Kbps
Channel(s)                               : 2 channels
Sampling rate                            : 48.0 KHz
Compression mode                         : Lossy
Stream size                              : 131 MiB (11%)
Alignment                                : Aligned on interleaves
Interleave, duration                     : 24 ms (0.58 video frame)
Interleave, preload duration             : 24 ms
Title                                    : RARBG.COM - Saw.IV.2007.UNRATED.BRRip.XviD.MP3-RARBG
Writing library                          : LAME3.99.5



[/mediainfo]
Download
File Container: AVI
Video/Audio Codec: XVID MP3
Video Resolution: 720x400
RAR Recovery Record: 5% (How to repair corrupted archive RAR file?)
http://rapidrar.com/gv8ouh1pvzvd
http://uploaded.net/file/bo4ixull
http://180upload.com/n98gjhtoruat
All releases of "Saw IV"

Show us some love

4 Responses to "[RR/UL/180U] Saw IV 2007 UNRATED BRRip XviD MP3-RARBG (1.3GB)"
10/10/15
16:54:34
Admin

RapidRAR re-uploaded with new RAR file(s) (users who couldn't download some parts need to download all parts again).

10/17/15
16:59:04
Admin

RapidRAR re-uploaded with new RAR file(s) (users who couldn't download some parts need to download all parts again).

10/24/15
09:50:07
Admin

RapidRAR re-uploaded with new RAR file(s) (users who couldn't download some parts need to download all parts again).

02/17/17
18:44:49
markoz91939

Is it possible to have this re-upped?

Leave a Comment

  • (never displayed)
  •  
        Members don't see captchas. Sign Up / Sign In
  • Notify me via email when someone responds.
RMTEAM 480p Encoding Queue
RMTEAM x265 Encoding Queue

Latest Episodes

Popular Movies and TV Shows

Recent Comments

Archives