Chip 'n' Dale | The Red Road | Empire of the Tsars Romanov Russia with Lucy Worsley
Sign Up   |   Sign In  

Announcements

Want to support us?
Buy a RapidRAR account from our resellers:
Buy or renew a NitroFlare account via THIS LINK

02/13

2017

No

Comments

Mercy Street S02E04 WEB-DL x264-RARBG
[RR/NF/UL/OL/OLw/UR/CU]
Size: 313MB mp4 H264 (HIGH) (AVC1) / AAC (LC) (MP4A) 720x400

Mercy Street
Click on the image to see full size
[RR/NF/UL/OL/OLw/UR/CU] Mercy Street S02E04 WEB-DL x264-RARBG (313MB) - Snapshot 1[RR/NF/UL/OL/OLw/UR/CU] Mercy Street S02E04 WEB-DL x264-RARBG (313MB) - Snapshot 2
File Information
[URL]http://www.imdb.com/title/tt4597870/[/URL]
[screenshots]
[URL=http://imagecurl.com/viewer.php?file=30438983538311972325.png][IMG]http://imagecurl.com/images/30438983538311972325_thumb.png[/IMG][/URL]
[URL=http://imagecurl.com/viewer.php?file=82987325547697339415.png][IMG]http://imagecurl.com/images/82987325547697339415_thumb.png[/IMG][/URL]
[URL=http://imagecurl.com/viewer.php?file=81822045697986893240.png][IMG]http://imagecurl.com/images/81822045697986893240_thumb.png[/IMG][/URL]
[URL=http://imagecurl.com/viewer.php?file=61998335132221867825.png][IMG]http://imagecurl.com/images/61998335132221867825_thumb.png[/IMG][/URL]
[URL=http://imagecurl.com/viewer.php?file=84904086738026914274.png][IMG]http://imagecurl.com/images/84904086738026914274_thumb.png[/IMG][/URL]

[/screenshots]


[mediainfo]
Video
ID                                       : 1
Format                                   : AVC
Format/Info                              : Advanced Video Codec
Format profile                           : [email protected]
Format settings, CABAC                   : Yes
Format settings, ReFrames                : 5 frames
Codec ID                                 : avc1
Codec ID/Info                            : Advanced Video Coding
Duration                                 : 52mn 38s
Bit rate                                 : 699 Kbps
Width                                    : 720 pixels
Height                                   : 400 pixels
Display aspect ratio                     : 16:9
Original display aspect ratio            : 16:9
Frame rate mode                          : Constant
Frame rate                               : 23.976 (24000/1001) fps
Color space                              : YUV
Chroma subsampling                       : 4:2:0
Bit depth                                : 8 bits
Scan type                                : Progressive
Bits/(Pixel*Frame)                       : 0.101
Stream size                              : 263 MiB (84%)
Title                                    : RARBG.COM - Mercy.Street.S02E04.WEB-DL.x264-RARBG
Writing library                          : x264 core 148 r2597M e86f3a1
 Encoding settings                        : cabac=1 / ref=5 / deblock=1:-1:-1 / analyse=0x3:0x113 / me=umh / subme=9 / psy=1 / psy_rd=1.00:0.15 / mixed_ref=1 / me_range=16 / chroma_me=1 / trellis=2 / 8x8dct=1 / cqm=0 / deadz / fast pskip=1 / chroma_qp_offset=-3 / threads=12 / lookahead_threads=1 / sliced_threads=0 / nr=0 / decimate=1 / interlaced=0 / bluray_compat=0 / c / bframes=3 / b_pyramid=2 / b_adapt=2 / b_bias=0 / direct=3 / weightb=1 / open_gop=0 / weightp=2 / keyint=250 / keyint_min=23 / scenecut=40 / intra_refresh=0 / rc_lookahead=50 / rc=crf / mbtree=1 / crf=19.0 / qcomp=0.60 / qpmin=0 / qpmax=69 / qpstep=4 / ip_ratio=1.40 / aq=1:1.00
Language                                 : English
Encoded date                             : UTC 2017-02-13 16:58:25
Tagged date                              : UTC 2017-02-13 16:58:25

Audio
ID                                       : 2
Format                                   : AAC
Format/Info                              : Advanced Audio Codec
Format profile                           : LC
Codec ID                                 : 40
Duration                                 : 52mn 38s
Duration_LastFrame                       : -11ms
Bit rate mode                            : Constant
Bit rate                                 : 128 Kbps
Channel(s)                               : 2 channels
Channel positions                        : Front: L R
Sampling rate                            : 48.0 KHz
Frame rate                               : 46.875 fps (1024 spf)
Compression mode                         : Lossy
Stream size                              : 48.2 MiB (15%)
Title                                    : RARBG.COM - Mercy.Street.S02E04.WEB-DL.x264-RARBG
Language                                 : English
Default                                  : Yes
Alternate group                          : 1
Encoded date                             : UTC 2017-02-13 16:58:25
Tagged date                              : UTC 2017-02-13 16:58:25



[/mediainfo]
Download
File Container: MP4
Video/Audio Codec: H264 (HIGH) (AVC1) AAC (LC) (MP4A)
Video Resolution: 720x400
http://rapidrar.com/k0vumo33vdiy
http://nitroflare.com/view/530BA97E60F222E/2_Eng.www.RapidMovieZ.com.srt
http://uploaded.net/file/uk4xtwiw
http://openload.co/f/tyIo-hSsTAM/2_Eng.www.RapidMovieZ.com.srt
http://uploadrocket.net/hdn1oyqc8b6b
http://clicknupload.link/plt62bhfw2ic
Watch Online [MP4]
All releases of "Mercy Street"

Show us some love

Leave a Comment

Latest Episodes

Popular Movies and TV Shows

Recent Comments

Archives