Back to Vil Romance 2008/ Brutál Románc | Victoria | Kaitlin Olson
Sign Up   |   Sign In  

Announcements

Want to support us?
Buy a RapidRAR account from our resellers:
Buy or renew a NitroFlare account via THIS LINK

02/13

2017

No

Comments

Marcella S01E01 WEBRip x264-RARBG
[RR/NF/UL/OL/OLw/UR]
Size: 404MB mp4 H264 (HIGH) (AVC1) / AAC (LC) (MP4A) 720x400

Marcella
Click on the image to see full size
[RR/NF/UL/OL/OLw/UR] Marcella S01E01 WEBRip x264-RARBG (404MB) - Snapshot 1[RR/NF/UL/OL/OLw/UR] Marcella S01E01 WEBRip x264-RARBG (404MB) - Snapshot 2
File Information
[URL]http://www.imdb.com/title/tt5269594/[/URL]
[screenshots]
[URL=http://imagecurl.com/viewer.php?file=17585788738809825837.png][IMG]http://imagecurl.com/images/17585788738809825837_thumb.png[/IMG][/URL]
[URL=http://imagecurl.com/viewer.php?file=44294895521677063018.png][IMG]http://imagecurl.com/images/44294895521677063018_thumb.png[/IMG][/URL]
[URL=http://imagecurl.com/viewer.php?file=98251976346967667141.png][IMG]http://imagecurl.com/images/98251976346967667141_thumb.png[/IMG][/URL]
[URL=http://imagecurl.com/viewer.php?file=38010348758934532138.png][IMG]http://imagecurl.com/images/38010348758934532138_thumb.png[/IMG][/URL]

[/screenshots]


[mediainfo]
Video
ID                                       : 1
Format                                   : AVC
Format/Info                              : Advanced Video Codec
Format profile                           : [email protected]
Format settings, CABAC                   : Yes
Format settings, ReFrames                : 5 frames
Codec ID                                 : avc1
Codec ID/Info                            : Advanced Video Coding
Duration                                 : 46 min
Bit rate                                 : 1 100 kb/s
Width                                    : 720 pixels
Height                                   : 400 pixels
Display aspect ratio                     : 16:9
Frame rate mode                          : Constant
Frame rate                               : 25.000 FPS
Color space                              : YUV
Chroma subsampling                       : 4:2:0
Bit depth                                : 8 bits
Scan type                                : Progressive
Bits/(Pixel*Frame)                       : 0.153
Stream size                              : 360 MiB (89%)
Title                                    : RARBG.COM - Marcella.S01E01.WEBRip.x264-RARBG
Writing library                          : x264 core 148 r2638M 7599210
 Encoding settings                        : cabac=1 / ref=5 / deblock=1:-1:-1 / analyse=0x3:0x113 / me=umh / subme=9 / psy=1 / psy_rd=1.00:0.15 / mixed_ref=1 / me_range=16 / chroma_me=1 / trellis=2 / 8x8dct=1 / cqm=0 / deadz / fast pskip=1 / chroma_qp_offset=-3 / threads=12 / lookahead_threads=1 / sliced_threads=0 / nr=0 / decimate=1 / interlaced=0 / bluray_compat=0 / c / bframes=3 / b_pyramid=2 / b_adapt=2 / b_bias=0 / direct=3 / weightb=1 / open_gop=0 / weightp=2 / keyint=250 / keyint_min=25 / scenecut=40 / intra_refresh=0 / rc_lookahead=50 / rc=abr / mbtree=1 / bitrate=1100 / ratetol=1.0 / qcomp=0.60 / qpmin=0 / qpmax=69 / qpstep=4 / ip_ratio=1.40 / aq=1:1.00
Encoded date                             : UTC 2017-02-12 14:31:29
Tagged date                              : UTC 2017-02-12 14:31:29

Audio
ID                                       : 2
Format                                   : AAC
Format/Info                              : Advanced Audio Codec
Format profile                           : LC
Codec ID                                 : 40
Duration                                 : 46 min
Duration_LastFrame                       : -11 ms
Bit rate mode                            : Constant
Bit rate                                 : 128 kb/s
Channel(s)                               : 2 channels
Channel positions                        : Front: L R
Sampling rate                            : 48.0 kHz
Frame rate                               : 46.875 FPS (1024 spf)
Compression mode                         : Lossy
Stream size                              : 42.5 MiB (11%)
Title                                    : RARBG.COM - Marcella.S01E01.WEBRip.x264-RARBG
Language                                 : English
Default                                  : Yes
Alternate group                          : 1
Encoded date                             : UTC 2017-02-12 14:31:29
Tagged date                              : UTC 2017-02-12 14:31:29



[/mediainfo]
Download
File Container: MP4
Video/Audio Codec: H264 (HIGH) (AVC1) AAC (LC) (MP4A)
Video Resolution: 720x400
http://rapidrar.com/2l26cfpocmhs http://rapidrar.com/q6mg1g7ithus http://rapidrar.com/ynej7dhrc34i http://rapidrar.com/l9vqkdcm9mcx
http://nitroflare.com/view/A3DE7AED22B56F3/2_Eng.www.RapidMovieZ.com.srt http://nitroflare.com/view/D25B74C4FE1B749/3_Fre.www.RapidMovieZ.com.srt http://nitroflare.com/view/98189F8FC59A00E/4_Ger.www.RapidMovieZ.com.srt http://nitroflare.com/view/8BB74D4B10DE7D8/5_Spa.www.RapidMovieZ.com.srt
http://uploaded.net/file/gbsy0bpb http://uploaded.net/file/n6s991e9 http://uploaded.net/file/yfuga19s http://uploaded.net/file/xnt4z3jm
http://openload.co/f/rj1cLob8AU4/2_Eng.www.RapidMovieZ.com.srt http://openload.co/f/CVFWuYnvOYM/3_Fre.www.RapidMovieZ.com.srt http://openload.co/f/FZQ71-0F_U0/4_Ger.www.RapidMovieZ.com.srt http://openload.co/f/dBwKI65PU1M/5_Spa.www.RapidMovieZ.com.srt
http://uploadrocket.net/2pp70uga4b73 http://uploadrocket.net/ub9fsk7txeun http://uploadrocket.net/jieltwx172c0 http://uploadrocket.net/g9cklwnl0w5j
Watch Online [MP4]
All releases of "Marcella"

Show us some love

Leave a Comment

  • (never displayed)
  •  
        Members don't see captchas. Sign Up / Sign In
  • Notify me via email when someone responds.

Latest Episodes

Popular Movies and TV Shows

Recent Comments

Archives