Browse verified Books torrents | Howard Stern Show FEB 07 2017 Tue | descargar Callback 1080p BRRip película completa 2016
Sign Up   |   Sign In  

Announcements

Want to support us?
Buy a RapidRAR account from our resellers:
Buy or renew a NitroFlare account via THIS LINK

02/13

2017

No

Comments

Marcella S01E01 720p WEBRip x264-RARBG
[RR/NF/UL/UR/CU]
Size: 1.8GB mkv H264 (HIGH) / AC3  HD  1280x720

Marcella
Click on the image to see full size
[RR/NF/UL/UR/CU] Marcella S01E01 720p WEBRip x264-RARBG (1.8GB) - Snapshot 1
File Information
[URL]http://www.imdb.com/title/tt5269594/[/URL]
[screenshots]
[URL=http://imagecurl.com/viewer.php?file=47298532949172240276.png][IMG]http://imagecurl.com/images/47298532949172240276_thumb.png[/IMG][/URL]
[URL=http://imagecurl.com/viewer.php?file=49952807571279423731.png][IMG]http://imagecurl.com/images/49952807571279423731_thumb.png[/IMG][/URL]
[URL=http://imagecurl.com/viewer.php?file=10532111023720245549.png][IMG]http://imagecurl.com/images/10532111023720245549_thumb.png[/IMG][/URL]
[URL=http://imagecurl.com/viewer.php?file=77795236379764980017.png][IMG]http://imagecurl.com/images/77795236379764980017_thumb.png[/IMG][/URL]

[/screenshots]


[mediainfo]
Video
ID                                       : 1
Format                                   : AVC
Format/Info                              : Advanced Video Codec
Format profile                           : [email protected]
Format settings, CABAC                   : Yes
Format settings, ReFrames                : 4 frames
Codec ID                                 : V_MPEG4/ISO/AVC
Duration                                 : 46 min
Bit rate                                 : 5 035 kb/s
Width                                    : 1 280 pixels
Height                                   : 720 pixels
Display aspect ratio                     : 16:9
Frame rate mode                          : Constant
Frame rate                               : 25.000 FPS
Color space                              : YUV
Chroma subsampling                       : 4:2:0
Bit depth                                : 8 bits
Scan type                                : Progressive
Bits/(Pixel*Frame)                       : 0.219
Stream size                              : 1.63 GiB (91%)
Title                                    : RARBG.COM - Marcella.S01E01.720p.WEBRip.x264-RARBG
Writing library                          : x264 core 148 r2638M 7599210
 Encoding settings                        : cabac=1 / ref=4 / deblock=1:-1:-1 / analyse=0x3:0x113 / me=umh / subme=9 / psy=1 / psy_rd=1.00:0.15 / mixed_ref=1 / me_range=16 / chroma_me=1 / trellis=2 / 8x8dct=1 / cqm=0 / deadz / fast pskip=1 / chroma_qp_offset=-3 / threads=12 / lookahead_threads=1 / sliced_threads=0 / nr=0 / decimate=1 / interlaced=0 / bluray_compat=0 / c / bframes=3 / b_pyramid=2 / b_adapt=2 / b_bias=0 / direct=3 / weightb=1 / open_gop=0 / weightp=2 / keyint=250 / keyint_min=25 / scenecut=40 / intra_refresh=0 / rc_lookahead=50 / rc=crf / mbtree=1 / crf=17.0 / qcomp=0.60 / qpmin=0 / qpmax=69 / qpstep=4 / ip_ratio=1.40 / aq=1:1.00
Default                                  : Yes
Forced                                   : No
Statistics Tags Issue                    : mkvmerge v8.3.0 ('Over the Horizon') 64bit 2017-02-02 05:05:55 / Lavf56.40.101 2017-02-12 14:31:29 / UTC 2017-02-12T14:31:29
FromStats_BitRate                        : 53786985
FromStats_Duration                       : 00:46:02.600000000
FromStats_FrameCount                     : 69065
FromStats_StreamSize                     : 18573990854

Audio
ID                                       : 2
Format                                   : AC-3
Format/Info                              : Audio Coding 3
Mode extension                           : CM (complete main)
Format settings, Endianness              : Big
Codec ID                                 : A_AC3
Duration                                 : 46 min
Bit rate mode                            : Constant
Bit rate                                 : 384 kb/s
Channel(s)                               : 6 channels
Channel positions                        : Front: L C R, Side: L R, LFE
Sampling rate                            : 48.0 kHz
Frame rate                               : 31.250 FPS (1536 spf)
Compression mode                         : Lossy
Delay relative to video                  : 24 ms
Stream size                              : 127 MiB (7%)
Title                                    : RARBG.COM - Marcella.S01E01.720p.WEBRip.x264-RARBG
Language                                 : English
Default                                  : Yes
Forced                                   : No
Statistics Tags Issue                    : mkvmerge v8.3.0 ('Over the Horizon') 64bit 2017-02-02 05:05:55 / Lavf56.40.101 2017-02-12 14:31:29 / UTC 2017-02-12T14:31:29
FromStats_BitRate                        : 384000
FromStats_Duration                       : 00:46:23.800000000
FromStats_FrameCount                     : 86993
FromStats_StreamSize                     : 133621248

Text
ID                                       : 3
Format                                   : UTF-8
Codec ID                                 : S_TEXT/UTF8
Codec ID/Info                            : UTF-8 Plain Text
Language                                 : English
Default                                  : Yes
Forced                                   : No
Statistics Tags Issue                    : mkvmerge v8.3.0 ('Over the Horizon') 64bit 2017-02-02 05:05:55 / Lavf56.40.101 2017-02-12 14:31:29 / UTC 2017-02-12T14:31:29
FromStats_BitRate                        : 52
FromStats_Duration                       : 00:45:26.080000000
FromStats_FrameCount                     : 538
FromStats_StreamSize                     : 17367



[/mediainfo]
Download
File Container: MKV
Video/Audio Codec: H264 (HIGH) AC3
Video Resolution: 1280x720
http://rapidrar.com/ovfhnlty2v9h http://rapidrar.com/3gdra6yjnawr http://rapidrar.com/0xk8gsbde1r2 http://rapidrar.com/n1knw685opke
http://nitroflare.com/view/0C5733D81010FE5/2_Eng.www.RapidMovieZ.com.srt http://nitroflare.com/view/C9D2BAAD8EAB2D0/3_Fre.www.RapidMovieZ.com.srt http://nitroflare.com/view/D3F10A2B50A5E66/4_Ger.www.RapidMovieZ.com.srt http://nitroflare.com/view/D859198D7B1C89E/5_Spa.www.RapidMovieZ.com.srt
http://uploaded.net/file/quga5ccg http://uploaded.net/file/tehll356 http://uploaded.net/file/dhe5x9p5 http://uploaded.net/file/4u27jj2n
http://uploadrocket.net/02jqrw6my2eo http://uploadrocket.net/720a9zgcd04h http://uploadrocket.net/5a01ptoin7ap http://uploadrocket.net/uvq3x8a63t2e
http://clicknupload.link/qhjfsuu45v1v http://clicknupload.link/l1b7jeiifw83 http://clicknupload.link/gvwztj7s5fwo http://clicknupload.link/1p2euwp2t11e
All releases of "Marcella"

Show us some love

Leave a Comment

  • (never displayed)
  •  
        Members don't see captchas. Sign Up / Sign In
  • Notify me via email when someone responds.

Latest Episodes

Popular Movies and TV Shows

Recent Comments

Archives