Atila, rey de los hunos (2001) | Wes Sargent | IMDB classement
Sign Up   |   Sign In  

Announcements

Want to support us?
Buy a RapidRAR account from our resellers:
Buy or renew a NitroFlare account via THIS LINK

02/14

2017

No

Comments

How to Live with Your Parents S01E01 WEB-DL x264-RARBG
[RR/NF/UL/OL/OLw/UR/CU]
Size: 177MB MP4 Streaming mp4 H264 (HIGH) (AVC1) / AAC (LC) (MP4A) 720x400

How to Live with Your Parents (For the Rest of Your Life)
Click on the image to see full size
[RR/NF/UL/OL/OLw/UR/CU] How to Live with Your Parents S01E01 WEB-DL x264-RARBG (177MB) - Snapshot 1[RR/NF/UL/OL/OLw/UR/CU] How to Live with Your Parents S01E01 WEB-DL x264-RARBG (177MB) - Snapshot 2
File Information
[URL]http://www.imdb.com/title/tt2226397/[/URL]
[screenshots]
[URL=http://imagecurl.com/viewer.php?file=18503796963825741962.png][IMG]http://imagecurl.com/images/18503796963825741962_thumb.png[/IMG][/URL]
[URL=http://imagecurl.com/viewer.php?file=98279499519210267426.png][IMG]http://imagecurl.com/images/98279499519210267426_thumb.png[/IMG][/URL]

[/screenshots]


[mediainfo]
Video
ID                                       : 1
Format                                   : AVC
Format/Info                              : Advanced Video Codec
Format profile                           : [email protected]
Format settings, CABAC                   : Yes
Format settings, ReFrames                : 5 frames
Codec ID                                 : avc1
Codec ID/Info                            : Advanced Video Coding
Duration                                 : 21mn 31s
Bit rate                                 : 1 017 Kbps
Width                                    : 720 pixels
Height                                   : 400 pixels
Display aspect ratio                     : 16:9
Frame rate mode                          : Constant
Frame rate                               : 23.976 (23976/1000) fps
Color space                              : YUV
Chroma subsampling                       : 4:2:0
Bit depth                                : 8 bits
Scan type                                : Progressive
Bits/(Pixel*Frame)                       : 0.147
Stream size                              : 157 MiB (88%)
Title                                    : RARBG.COM - How.to.Live.with.Your.Parents.S01E01.WEB-DL.x264-RARBG
Writing library                          : x264 core 148 r2597M e86f3a1
 Encoding settings                        : cabac=1 / ref=5 / deblock=1:-1:-1 / analyse=0x3:0x113 / me=umh / subme=9 / psy=1 / psy_rd=1.00:0.15 / mixed_ref=1 / me_range=16 / chroma_me=1 / trellis=2 / 8x8dct=1 / cqm=0 / deadz / fast pskip=1 / chroma_qp_offset=-3 / threads=12 / lookahead_threads=1 / sliced_threads=0 / nr=0 / decimate=1 / interlaced=0 / bluray_compat=0 / c / bframes=3 / b_pyramid=2 / b_adapt=2 / b_bias=0 / direct=3 / weightb=1 / open_gop=0 / weightp=2 / keyint=250 / keyint_min=23 / scenecut=40 / intra_refresh=0 / rc_lookahead=50 / rc=crf / mbtree=1 / crf=19.0 / qcomp=0.60 / qpmin=0 / qpmax=69 / qpstep=4 / ip_ratio=1.40 / aq=1:1.00
Language                                 : English
Encoded date                             : UTC 2017-02-14 10:00:24
Tagged date                              : UTC 2017-02-14 10:00:24

Audio
ID                                       : 2
Format                                   : AAC
Format/Info                              : Advanced Audio Codec
Format profile                           : LC
Codec ID                                 : 40
Duration                                 : 21mn 31s
Bit rate mode                            : Constant
Bit rate                                 : 128 Kbps
Channel(s)                               : 2 channels
Channel positions                        : Front: L R
Sampling rate                            : 48.0 KHz
Frame rate                               : 46.875 fps (1024 spf)
Compression mode                         : Lossy
Stream size                              : 19.7 MiB (11%)
Title                                    : RARBG.COM - How.to.Live.with.Your.Parents.S01E01.WEB-DL.x264-RARBG
Language                                 : English
Default                                  : Yes
Alternate group                          : 1
Encoded date                             : UTC 2017-02-14 10:00:24
Tagged date                              : UTC 2017-02-14 10:00:24



[/mediainfo]
Download
File Container: MP4
Video/Audio Codec: H264 (HIGH) (AVC1) AAC (LC) (MP4A)
Video Resolution: 720x400
Watch Online [MP4]

Show us some love

Leave a Comment

  • (never displayed)
  •  
        Members don't see captchas. Sign Up / Sign In
  • Notify me via email when someone responds.
  • Subscribe my Feeds
  • Facebook

Latest Episodes

Popular Movies and TV Shows

  • The Flash
  • Agents of S.H.I.E.L.D.
  • Legends of Tomorrow
  • Man Down
  • Jackie
  • Tanna
  • New Girl
  • NCIS: Naval Criminal Investigative Service
  • Billions
  • Trespass Against Us
  • American Violence
  • Assassin's Creed
  • Timeless
  • Supergirl
  • A.P.B.
  • Iliza Shlesinger: Confirmed Kills
  • John Wick: Chapter 2
  • I, Daniel Blake
  • 24: Legacy
  • Scorpion
  • Bellevue
  • Fare
  • Sophie and the Rising Sun
  • Punch-Drunk Love
  • The Walking Dead

Recent Comments

  • TheFlashx265:

    Thanksss. OMGosh. I'm so excited for Flash/Legends of Tomorrow being back!!

  • MahBoff:

    Thanks alot!

  • TheFlashx265: Potplayer is the best i've seen for .ts files with smooth playback, when using most others there ten...
  • Thank you:

    1080p please :)

  • GerritV: Thanks for making this upload available. You seem to be our only source of quality Australian progra...
  • iSteele:

    VLC Player will do the trick
    or convert it to your preferred format.

  • M1st3rN0b0d7:

    Please release x265 !
    Thanks.

  • Tea:

    How do you play a .ts file?!

  • steklodellhc: удалите,пожалуйста! . заказать зеркало в ванную в ...
  • strapdoc:

    Could you re-up uploaded.net please