THAT '70S SHOW | RSS feed for this post (comments) | Strike Back
Sign Up   |   Sign In  

Announcements

Want to support us?
Buy a RapidRAR account from our resellers:
Buy or renew a NitroFlare account via THIS LINK

02/17

2017

1

Comments

How to Get Away with Murder S03E13 1080p WEB-DL DD5 1 H264-RARBG
[RR/NF/UL/UR/CU]
Size: 1.7GB mkv H264 (HIGH) / AC3  HD  1920x1080

How to Get Away with Murder
Click on the image to see full size
[RR/NF/UL/UR/CU] How to Get Away with Murder S03E13 1080p WEB-DL DD5 1 H264-RARBG (1.7GB) - Snapshot 1
File Information
[URL=http://imagecurl.com/viewer.php?file=58647600752738659293.png][IMG]http://imagecurl.com/images/58647600752738659293_thumb.png[/IMG][/URL]
[URL=http://imagecurl.com/viewer.php?file=37891744290386079422.png][IMG]http://imagecurl.com/images/37891744290386079422_thumb.png[/IMG][/URL]
[URL=http://imagecurl.com/viewer.php?file=77887319327741896061.png][IMG]http://imagecurl.com/images/77887319327741896061_thumb.png[/IMG][/URL]
[URL=http://imagecurl.com/viewer.php?file=28149595628842370394.png][IMG]http://imagecurl.com/images/28149595628842370394_thumb.png[/IMG][/URL]
[URL=http://imagecurl.com/viewer.php?file=19989529009024945034.png][IMG]http://imagecurl.com/images/19989529009024945034_thumb.png[/IMG][/URL]
[URL=http://imagecurl.com/viewer.php?file=59757639091549931902.png][IMG]http://imagecurl.com/images/59757639091549931902_thumb.png[/IMG][/URL]



[mediainfo]
Video
ID                                       : 1
Format                                   : AVC
Format/Info                              : Advanced Video Codec
Format profile                           : [email protected]
Format settings, CABAC                   : Yes
Format settings, ReFrames                : 4 frames
Codec ID                                 : V_MPEG4/ISO/AVC
Duration                                 : 44mn 7s
Bit rate                                 : 5 132 Kbps
Width                                    : 1 920 pixels
Height                                   : 1 080 pixels
Display aspect ratio                     : 16:9
Frame rate mode                          : Constant
Frame rate                               : 23.976 fps
Color space                              : YUV
Chroma subsampling                       : 4:2:0
Bit depth                                : 8 bits
Scan type                                : Progressive
Bits/(Pixel*Frame)                       : 0.103
Stream size                              : 1.58 GiB (91%)
Title                                    : How.to.Get.Away.with.Murder.S03E13.1080p.WEB-DL.DD5.1.H264-RARBG
Language                                 : English
Default                                  : Yes
Forced                                   : No
Color range                              : Limited
Color primaries                          : BT.709
Transfer characteristics                 : BT.709
Matrix coefficients                      : BT.709

Audio
ID                                       : 2
Format                                   : AC-3
Format/Info                              : Audio Coding 3
Mode extension                           : CM (complete main)
Format settings, Endianness              : Big
Codec ID                                 : A_AC3
Duration                                 : 44mn 7s
Bit rate mode                            : Constant
Bit rate                                 : 384 Kbps
Channel(s)                               : 6 channels
Channel positions                        : Front: L C R, Side: L R, LFE
Sampling rate                            : 48.0 KHz
Frame rate                               : 31.250 fps (1536 spf)
Compression mode                         : Lossy
Stream size                              : 121 MiB (7%)
Title                                    : How.to.Get.Away.with.Murder.S03E13.1080p.WEB-DL.DD5.1.H264-RARBG
Language                                 : English
Default                                  : Yes
Forced                                   : No

Text #1
ID                                       : 3
Format                                   : UTF-8
Codec ID                                 : S_TEXT/UTF8
Codec ID/Info                            : UTF-8 Plain Text
Language                                 : English
Default                                  : Yes
Forced                                   : No

Text #2
ID                                       : 4
Format                                   : UTF-8
Codec ID                                 : S_TEXT/UTF8
Codec ID/Info                            : UTF-8 Plain Text
Title                                    : SDH
Language                                 : English
Default                                  : No
Forced                                   : No



[/mediainfo]
Download
File Container: MKV
Video/Audio Codec: H264 (HIGH) AC3
Video Resolution: 1920x1080
http://rapidrar.com/xsntj433b00r http://rapidrar.com/p76g6yhu4utx
http://nitroflare.com/view/F303F9060E76ADB/How.to.Get.Away.with.Murder.S03E13.1080p.WEB-DL.DD5.1.H264-RARBG-SDH.www.RapidMovieZ.com.srt http://nitroflare.com/view/9D3C99BFDB57E3E/How.to.Get.Away.with.Murder.S03E13.1080p.WEB-DL.DD5.1.H264-RARBG.www.RapidMovieZ.com.srt
http://uploaded.net/file/nq4xq1r8 http://uploaded.net/file/se21e3qb
http://uploadrocket.net/5tpu779109ca http://uploadrocket.net/2y74vi8bbdhg
http://clicknupload.link/wfeo3i1i8ztm http://clicknupload.link/o8welcfta08c
All releases of "How to Get Away with Murder"

Show us some love

1 Response to "[RR/NF/UL/UR/CU] How to Get Away with Murder S03E13 1080p WEB-DL DD5 1 H264-RARBG (1.7GB)"
02/17/17
23:28:52
pouya

x265 plz.. thanks

Leave a Comment

  • (never displayed)
  •  
        Members don't see captchas. Sign Up / Sign In
  • Notify me via email when someone responds.

Latest Episodes

Popular Movies and TV Shows

Recent Comments

Archives