HeavyOnHotties E113 Amarna Miller Numero Uno 720p HEVC x265 piemonster mkv | The Internet’s Own Boy: The Story of Aaron Swartz (2014) The story of programming prodigy and information activist Aaron Swartz. From Swartz's help in the development of the basic internet protocol RSS to his co-founding of Reddit, his fingerprints are all over the internet. But it was Swartz's groundbreaking work in social justice and political organizing combined with his aggressive approach to information access that ensnared him in a two ... | Gary Lineker,
Sign Up   |   Sign In  

Announcements

Want to support us?
Buy a RapidRAR account from our resellers:
Buy or renew a NitroFlare account via THIS LINK

02/13

2017

5

Comments

Homeland S06E04 WEB-DL x264-RARBG
[RR/NF/UL/OL/OLw/UR/CU]
Size: 298MB mp4 H264 (HIGH) (AVC1) / AAC (LC) (MP4A) 720x400

Homeland
Click on the image to see full size
[RR/NF/UL/OL/OLw/UR/CU] Homeland S06E04 WEB-DL x264-RARBG (298MB) - Snapshot 1[RR/NF/UL/OL/OLw/UR/CU] Homeland S06E04 WEB-DL x264-RARBG (298MB) - Snapshot 2
File Information
[URL]http://www.imdb.com/title/tt1796960/[/URL]
[screenshots]
[URL=http://imagecurl.com/viewer.php?file=08534740220136709139.png][IMG]http://imagecurl.com/images/08534740220136709139_thumb.png[/IMG][/URL]
[URL=http://imagecurl.com/viewer.php?file=77446136290079439230.png][IMG]http://imagecurl.com/images/77446136290079439230_thumb.png[/IMG][/URL]
[URL=http://imagecurl.com/viewer.php?file=17481147773986676085.png][IMG]http://imagecurl.com/images/17481147773986676085_thumb.png[/IMG][/URL]
[URL=http://imagecurl.com/viewer.php?file=11328125834097385988.png][IMG]http://imagecurl.com/images/11328125834097385988_thumb.png[/IMG][/URL]

[/screenshots]


[mediainfo]
Video
ID                                       : 1
Format                                   : AVC
Format/Info                              : Advanced Video Codec
Format profile                           : [email protected]
Format settings, CABAC                   : Yes
Format settings, ReFrames                : 5 frames
Codec ID                                 : avc1
Codec ID/Info                            : Advanced Video Coding
Duration                                 : 49mn 54s
Bit rate                                 : 702 Kbps
Width                                    : 720 pixels
Height                                   : 400 pixels
Display aspect ratio                     : 16:9
Frame rate mode                          : Constant
Frame rate                               : 23.976 (24000/1001) fps
Color space                              : YUV
Chroma subsampling                       : 4:2:0
Bit depth                                : 8 bits
Scan type                                : Progressive
Bits/(Pixel*Frame)                       : 0.102
Stream size                              : 251 MiB (84%)
Title                                    : RARBG.COM - Homeland.S06E04.WEB-DL.x264-RARBG
Writing library                          : x264 core 148 r2597M e86f3a1
 Encoding settings                        : cabac=1 / ref=5 / deblock=1:-1:-1 / analyse=0x3:0x113 / me=umh / subme=9 / psy=1 / psy_rd=1.00:0.15 / mixed_ref=1 / me_range=16 / chroma_me=1 / trellis=2 / 8x8dct=1 / cqm=0 / deadz / fast pskip=1 / chroma_qp_offset=-3 / threads=12 / lookahead_threads=1 / sliced_threads=0 / nr=0 / decimate=1 / interlaced=0 / bluray_compat=0 / c / bframes=3 / b_pyramid=2 / b_adapt=2 / b_bias=0 / direct=3 / weightb=1 / open_gop=0 / weightp=2 / keyint=250 / keyint_min=23 / scenecut=40 / intra_refresh=0 / rc_lookahead=50 / rc=crf / mbtree=1 / crf=19.0 / qcomp=0.60 / qpmin=0 / qpmax=69 / qpstep=4 / ip_ratio=1.40 / aq=1:1.00
Language                                 : English
Encoded date                             : UTC 2017-02-13 04:32:33
Tagged date                              : UTC 2017-02-13 04:32:33

Audio
ID                                       : 2
Format                                   : AAC
Format/Info                              : Advanced Audio Codec
Format profile                           : LC
Codec ID                                 : 40
Duration                                 : 49mn 55s
Duration_LastFrame                       : -11ms
Bit rate mode                            : Constant
Bit rate                                 : 128 Kbps
Channel(s)                               : 2 channels
Channel positions                        : Front: L R
Sampling rate                            : 48.0 KHz
Frame rate                               : 46.875 fps (1024 spf)
Compression mode                         : Lossy
Stream size                              : 45.7 MiB (15%)
Title                                    : RARBG.COM - Homeland.S06E04.WEB-DL.x264-RARBG
Language                                 : English
Default                                  : Yes
Alternate group                          : 1
Encoded date                             : UTC 2017-02-13 04:32:33
Tagged date                              : UTC 2017-02-13 04:32:33



[/mediainfo]
Download
File Container: MP4
Video/Audio Codec: H264 (HIGH) (AVC1) AAC (LC) (MP4A)
Video Resolution: 720x400
http://rapidrar.com/8zv5jwikbtl6
http://nitroflare.com/view/741B52D3544D304/2_Eng.www.RapidMovieZ.com.srt
http://uploaded.net/file/37ob4lm9
http://openload.co/f/Xiq9wssUQdY/2_Eng.www.RapidMovieZ.com.srt
http://uploadrocket.net/kovgtscfntsy
http://clicknupload.link/f77pc57flsuf
Watch Online [MP4]
All releases of "Homeland"

Show us some love

5 Responses to "[RR/NF/UL/OL/OLw/UR/CU] Homeland S06E04 WEB-DL x264-RARBG (298MB)"
02/13/17
07:16:51
TT

Please remove these screen shots they are EXTREMELY offensive. What are we downloading!!!

02/13/17
08:45:53
vandak

hahaha wowwwww. at first i was like, damn carrie.. what won't you do for your country hahahha!! :'D ahhhh classic.

02/13/17
10:29:12
AJFan

:) o.0 o.0 :)

02/14/17
19:40:08
Admin

RapidRAR re-uploaded with new RAR file(s) (users who couldn't download some parts need to download all parts again).

02/17/17
15:17:57
Admin

RapidRAR re-uploaded with new RAR file(s) (users who couldn't download some parts need to download all parts again).

Leave a Comment

Latest Episodes

Popular Movies and TV Shows

Recent Comments

Archives