DigitalPlayground com_16 06 04 Flesh House Of Hedonism Episode 5 XXX iMAGESET... | Al-Qari Interactive teacher of Quran | Pantyhosed4U com_17 02 08 Kate Rose Orgasm Via Pantyhose XXX IMAGESET-GAGBALL...
Sign Up   |   Sign In  

Announcements

Want to support us?
Buy a RapidRAR account from our resellers:
Buy or renew a NitroFlare account via THIS LINK

02/17

2017

6

Comments

Greys Anatomy S13E13 1080p WEB-DL DD5 1 H264-RARBG
[RR/NF/UR/CU]
Size: 1.7GB mkv H264 (HIGH) / AC3  HD  1920x1080

Grey's Anatomy
Click on the image to see full size
[RR/NF/UR/CU] Greys Anatomy S13E13 1080p WEB-DL DD5 1 H264-RARBG (1.7GB) - Snapshot 1
File Information
[URL=http://imagecurl.com/viewer.php?file=08312902019066144083.png][IMG]http://imagecurl.com/images/08312902019066144083_thumb.png[/IMG][/URL]
[URL=http://imagecurl.com/viewer.php?file=34211554128692599573.png][IMG]http://imagecurl.com/images/34211554128692599573_thumb.png[/IMG][/URL]
[URL=http://imagecurl.com/viewer.php?file=19211952395400142315.png][IMG]http://imagecurl.com/images/19211952395400142315_thumb.png[/IMG][/URL]
[URL=http://imagecurl.com/viewer.php?file=65295454227187328719.png][IMG]http://imagecurl.com/images/65295454227187328719_thumb.png[/IMG][/URL]
[URL=http://imagecurl.com/viewer.php?file=73163439528106116118.png][IMG]http://imagecurl.com/images/73163439528106116118_thumb.png[/IMG][/URL]
[URL=http://imagecurl.com/viewer.php?file=30379889975677035212.png][IMG]http://imagecurl.com/images/30379889975677035212_thumb.png[/IMG][/URL]



[mediainfo]
Video
ID                                       : 1
Format                                   : AVC
Format/Info                              : Advanced Video Codec
Format profile                           : [email protected]
Format settings, CABAC                   : Yes
Format settings, ReFrames                : 4 frames
Codec ID                                 : V_MPEG4/ISO/AVC
Duration                                 : 44mn 7s
Bit rate                                 : 5 104 Kbps
Width                                    : 1 920 pixels
Height                                   : 1 080 pixels
Display aspect ratio                     : 16:9
Frame rate mode                          : Constant
Frame rate                               : 23.976 fps
Color space                              : YUV
Chroma subsampling                       : 4:2:0
Bit depth                                : 8 bits
Scan type                                : Progressive
Bits/(Pixel*Frame)                       : 0.103
Stream size                              : 1.57 GiB (91%)
Title                                    : Greys.Anatomy.S13E13.1080p.WEB-DL.DD5.1.H264-RARBG
Language                                 : English
Default                                  : Yes
Forced                                   : No
Color range                              : Limited
Color primaries                          : BT.709
Transfer characteristics                 : BT.709
Matrix coefficients                      : BT.709

Audio
ID                                       : 2
Format                                   : AC-3
Format/Info                              : Audio Coding 3
Mode extension                           : CM (complete main)
Format settings, Endianness              : Big
Codec ID                                 : A_AC3
Duration                                 : 44mn 7s
Bit rate mode                            : Constant
Bit rate                                 : 384 Kbps
Channel(s)                               : 6 channels
Channel positions                        : Front: L C R, Side: L R, LFE
Sampling rate                            : 48.0 KHz
Frame rate                               : 31.250 fps (1536 spf)
Compression mode                         : Lossy
Stream size                              : 121 MiB (7%)
Title                                    : Greys.Anatomy.S13E13.1080p.WEB-DL.DD5.1.H264-RARBG
Language                                 : English
Default                                  : Yes
Forced                                   : No

Text #1
ID                                       : 3
Format                                   : UTF-8
Codec ID                                 : S_TEXT/UTF8
Codec ID/Info                            : UTF-8 Plain Text
Language                                 : English
Default                                  : Yes
Forced                                   : No

Text #2
ID                                       : 4
Format                                   : UTF-8
Codec ID                                 : S_TEXT/UTF8
Codec ID/Info                            : UTF-8 Plain Text
Title                                    : SDH
Language                                 : English
Default                                  : No
Forced                                   : No



[/mediainfo]
Download
File Container: MKV
Video/Audio Codec: H264 (HIGH) AC3
Video Resolution: 1920x1080
http://rapidrar.com/lgr6m2ct1kyg http://rapidrar.com/vgk8jajs1g82
http://nitroflare.com/view/9D1ED8ADD945A1B/Greys.Anatomy.S13E13.1080p.WEB-DL.DD5.1.H264-RARBG-SDH.www.RapidMovieZ.com.srt http://nitroflare.com/view/267E7E6AAA969EB/Greys.Anatomy.S13E13.1080p.WEB-DL.DD5.1.H264-RARBG.www.RapidMovieZ.com.srt
http://uploadrocket.net/k18mto0gt7q3 http://uploadrocket.net/abmmvg0l4opx
http://clicknupload.link/q2uqk1o19ljx http://clicknupload.link/z98wfjh8x6v4
All releases of "Grey's Anatomy"

Show us some love

6 Responses to "[RR/NF/UR/CU] Greys Anatomy S13E13 1080p WEB-DL DD5 1 H264-RARBG (1.7GB)"
02/18/17
16:00:15
Admin

RapidRAR re-uploaded with new RAR file(s) (users who couldn't download some parts need to download all parts again).

02/18/17
20:31:39
Admin

RapidRAR re-uploaded with new RAR file(s) (users who couldn't download some parts need to download all parts again).

02/19/17
14:50:24
Admin

RapidRAR re-uploaded with new RAR file(s) (users who couldn't download some parts need to download all parts again).

02/20/17
18:10:22
Admin

RapidRAR re-uploaded with new RAR file(s) (users who couldn't download some parts need to download all parts again).

02/21/17
15:10:18
Admin

RapidRAR re-uploaded with new RAR file(s) (users who couldn't download some parts need to download all parts again).

02/22/17
18:00:11
Admin

RapidRAR re-uploaded with new RAR file(s) (users who couldn't download some parts need to download all parts again).

Leave a Comment

  • (never displayed)
  •  
        Members don't see captchas. Sign Up / Sign In
  • Notify me via email when someone responds.

Latest Episodes

Popular Movies and TV Shows

Recent Comments

Archives