Ayakashi Samurai Horror Tales (2006 ) | Big Time Rush 2009 4.1 | Come Essere un Gentleman
Sign Up   |   Sign In  

Announcements

Want to support us?
Buy a RapidRAR account from our resellers:
Buy or renew a NitroFlare account via THIS LINK

02/14

2017

1

Comments

Family Guy S15E12 WEB-DL x264-RARBG
[RR/NF/UL/OL/OLw/UR/CU]
Size: 74MB mp4 H264 (HIGH) (AVC1) / AAC (LC) (MP4A) 720x400

Family Guy
Click on the image to see full size
[RR/NF/UL/OL/OLw/UR/CU] Family Guy S15E12 WEB-DL x264-RARBG (74MB) - Snapshot 1[RR/NF/UL/OL/OLw/UR/CU] Family Guy S15E12 WEB-DL x264-RARBG (74MB) - Snapshot 2
File Information
[URL]http://www.imdb.com/title/tt0182576/[/URL]
[screenshots]
[URL=http://imagecurl.com/viewer.php?file=64318148682938772286.png][IMG]http://imagecurl.com/images/64318148682938772286_thumb.png[/IMG][/URL]
[URL=http://imagecurl.com/viewer.php?file=22633429590492591783.png][IMG]http://imagecurl.com/images/22633429590492591783_thumb.png[/IMG][/URL]

[/screenshots]


[mediainfo]
Video
ID                                       : 1
Format                                   : AVC
Format/Info                              : Advanced Video Codec
Format profile                           : [email protected]
Format settings, CABAC                   : Yes
Format settings, ReFrames                : 5 frames
Codec ID                                 : avc1
Codec ID/Info                            : Advanced Video Coding
Duration                                 : 21mn 35s
Bit rate                                 : 351 Kbps
Width                                    : 720 pixels
Height                                   : 400 pixels
Display aspect ratio                     : 16:9
Frame rate mode                          : Constant
Frame rate                               : 23.976 (24000/1001) fps
Color space                              : YUV
Chroma subsampling                       : 4:2:0
Bit depth                                : 8 bits
Scan type                                : Progressive
Bits/(Pixel*Frame)                       : 0.051
Stream size                              : 54.3 MiB (72%)
Title                                    : RARBG.COM - Family.Guy.S15E12.WEB-DL.x264-RARBG
Writing library                          : x264 core 148 r2597M e86f3a1
 Encoding settings                        : cabac=1 / ref=5 / deblock=1:-1:-1 / analyse=0x3:0x113 / me=umh / subme=9 / psy=1 / psy_rd=1.00:0.15 / mixed_ref=1 / me_range=16 / chroma_me=1 / trellis=2 / 8x8dct=1 / cqm=0 / deadz / fast pskip=1 / chroma_qp_offset=-3 / threads=12 / lookahead_threads=1 / sliced_threads=0 / nr=0 / decimate=1 / interlaced=0 / bluray_compat=0 / c / bframes=3 / b_pyramid=2 / b_adapt=2 / b_bias=0 / direct=3 / weightb=1 / open_gop=0 / weightp=2 / keyint=250 / keyint_min=23 / scenecut=40 / intra_refresh=0 / rc_lookahead=50 / rc=crf / mbtree=1 / crf=19.0 / qcomp=0.60 / qpmin=0 / qpmax=69 / qpstep=4 / ip_ratio=1.40 / aq=1:1.00
Language                                 : English
Encoded date                             : UTC 2017-02-14 00:57:29
Tagged date                              : UTC 2017-02-14 00:57:29

Audio
ID                                       : 2
Format                                   : AAC
Format/Info                              : Advanced Audio Codec
Format profile                           : LC
Codec ID                                 : 40
Duration                                 : 21mn 35s
Bit rate mode                            : Constant
Bit rate                                 : 128 Kbps
Channel(s)                               : 2 channels
Channel positions                        : Front: L R
Sampling rate                            : 48.0 KHz
Frame rate                               : 46.875 fps (1024 spf)
Compression mode                         : Lossy
Stream size                              : 19.8 MiB (26%)
Title                                    : RARBG.COM - Family.Guy.S15E12.WEB-DL.x264-RARBG
Language                                 : English
Default                                  : Yes
Alternate group                          : 1
Encoded date                             : UTC 2017-02-14 00:57:29
Tagged date                              : UTC 2017-02-14 00:57:29



[/mediainfo]
Download
File Container: MP4
Video/Audio Codec: H264 (HIGH) (AVC1) AAC (LC) (MP4A)
Video Resolution: 720x400
http://rapidrar.com/prezh9n37fci
http://nitroflare.com/view/0281484701E9BB0/2_Eng.www.RapidMovieZ.com.srt
http://uploaded.net/file/nax1t19w
http://openload.co/f/0ShVDPG2NiM/2_Eng.www.RapidMovieZ.com.srt
http://uploadrocket.net/c58bc1rjmmva
http://clicknupload.link/gxypqkv7zn8n
Watch Online [MP4]
All releases of "Family Guy"

Show us some love

1 Response to "[RR/NF/UL/OL/OLw/UR/CU] Family Guy S15E12 WEB-DL x264-RARBG (74MB)"
02/14/17
19:40:07
Admin

RapidRAR re-uploaded with new RAR file(s) (users who couldn't download some parts need to download all parts again).

Leave a Comment

Latest Episodes

Popular Movies and TV Shows

Recent Comments

Archives