Siguiente >> | Watch this | J.K. Simmons
Sign Up   |   Sign In  

Announcements

Want to support us?
Buy a RapidRAR account from our resellers:
Buy or renew a NitroFlare account via THIS LINK

02/17

2017

No

Comments

Counter Clockwise 2016 BRRip XviD MP3-RARBG
[RR/NF/OL/UR/CU]
Size: 883MB 2 CDs avi XVID / MP3 720x306

Counter Clockwise
Click on the image to see full size
[RR/NF/OL/UR/CU] Counter Clockwise 2016 BRRip XviD MP3-RARBG (883MB) - Snapshot 1[RR/NF/OL/UR/CU] Counter Clockwise 2016 BRRip XviD MP3-RARBG (883MB) - Snapshot 2
File Information
[URL=http://imagecurl.com/viewer.php?file=83898226376240165547.png][IMG]http://imagecurl.com/images/83898226376240165547_thumb.png[/IMG][/URL]
[URL=http://imagecurl.com/viewer.php?file=11829643584713803497.png][IMG]http://imagecurl.com/images/11829643584713803497_thumb.png[/IMG][/URL]
[URL=http://imagecurl.com/viewer.php?file=75429988713303400434.png][IMG]http://imagecurl.com/images/75429988713303400434_thumb.png[/IMG][/URL]
[URL=http://imagecurl.com/viewer.php?file=54148067375985556980.png][IMG]http://imagecurl.com/images/54148067375985556980_thumb.png[/IMG][/URL]
[URL=http://imagecurl.com/viewer.php?file=82021606578763027031.png][IMG]http://imagecurl.com/images/82021606578763027031_thumb.png[/IMG][/URL]


[mediainfo]
Video
ID                                       : 0
Format                                   : MPEG-4 Visual
Format profile                           : [email protected]
Format settings, BVOP                    : No
Format settings, QPel                    : No
Format settings, GMC                     : No warppoints
Format settings, Matrix                  : Default (H.263)
Codec ID                                 : XVID
Codec ID/Hint                            : XviD
Duration                                 : 1h 32mn
Bit rate                                 : 1 137 Kbps
Width                                    : 720 pixels
Height                                   : 306 pixels
Display aspect ratio                     : 2.35:1
Frame rate                               : 23.976 fps
Color space                              : YUV
Chroma subsampling                       : 4:2:0
Bit depth                                : 8 bits
Scan type                                : Progressive
Compression mode                         : Lossy
Bits/(Pixel*Frame)                       : 0.215
Stream size                              : 748 MiB (85%)
Title                                    : RARBG.COM - Counter.Clockwise.2016.BRRip.XviD.MP3-RARBG
Writing library                          : Lavc56.60.100

Audio
ID                                       : 1
Format                                   : MPEG Audio
Format version                           : Version 1
Format profile                           : Layer 3
Mode                                     : Joint stereo
Mode extension                           : MS Stereo
Codec ID                                 : 55
Codec ID/Hint                            : MP3
Duration                                 : 1h 31mn
Bit rate mode                            : Constant
Bit rate                                 : 192 Kbps
Channel(s)                               : 2 channels
Sampling rate                            : 48.0 KHz
Compression mode                         : Lossy
Stream size                              : 126 MiB (14%)
Alignment                                : Aligned on interleaves
Interleave, duration                     : 24 ms (0.58 video frame)
Interleave, preload duration             : 24 ms
Title                                    : RARBG.COM - Counter.Clockwise.2016.BRRip.XviD.MP3-RARBG
Writing library                          : LAME



[/mediainfo]
Download
File Container: AVI
Video/Audio Codec: XVID MP3
Video Resolution: 720x306
http://rapidrar.com/wytzo1srcvmb
http://nitroflare.com/view/003111142A68F86/RARBG.www.RapidMovieZ.com.avi
http://openload.co/f/aJtacMtvpPs/RARBG.www.RapidMovieZ.com.avi
http://uploadrocket.net/0ofn1602ewp7
http://clicknupload.link/5m0xscrju9bf
All releases of "Counter Clockwise"

Show us some love

Leave a Comment

  • (never displayed)
  •  
        Members don't see captchas. Sign Up / Sign In
  • Notify me via email when someone responds.

Latest Episodes

Popular TV Shows

Recent Comments

Archives