Angel from hell season 1 episode 12 | The Good Dinosaur TS-Screener | Westworld
Sign Up   |   Sign In  

Announcements

Want to support us?
Buy a RapidRAR account from our resellers:
Buy or renew a NitroFlare account via THIS LINK

02/17

2017

No

Comments

Counter Clockwise 2016 BRRip XviD AC3-RARBG
[RR/NF/UR/CU]
Size: 1GB 2 CDs avi XVID / AC3 720x306

Counter Clockwise
Click on the image to see full size
[RR/NF/UR/CU] Counter Clockwise 2016 BRRip XviD AC3-RARBG (1GB) - Snapshot 1[RR/NF/UR/CU] Counter Clockwise 2016 BRRip XviD AC3-RARBG (1GB) - Snapshot 2
File Information
[URL=http://imagecurl.com/viewer.php?file=67682752508719533789.png][IMG]http://imagecurl.com/images/67682752508719533789_thumb.png[/IMG][/URL]
[URL=http://imagecurl.com/viewer.php?file=92634612937976214601.png][IMG]http://imagecurl.com/images/92634612937976214601_thumb.png[/IMG][/URL]
[URL=http://imagecurl.com/viewer.php?file=26856287309861746502.png][IMG]http://imagecurl.com/images/26856287309861746502_thumb.png[/IMG][/URL]
[URL=http://imagecurl.com/viewer.php?file=33283958969217716532.png][IMG]http://imagecurl.com/images/33283958969217716532_thumb.png[/IMG][/URL]
[URL=http://imagecurl.com/viewer.php?file=10536117001927877012.png][IMG]http://imagecurl.com/images/10536117001927877012_thumb.png[/IMG][/URL]


[mediainfo]
Video
ID                                       : 0
Format                                   : MPEG-4 Visual
Format profile                           : [email protected]
Format settings, BVOP                    : No
Format settings, QPel                    : No
Format settings, GMC                     : No warppoints
Format settings, Matrix                  : Default (H.263)
Codec ID                                 : XVID
Codec ID/Hint                            : XviD
Duration                                 : 1h 32mn
Bit rate                                 : 1 137 Kbps
Width                                    : 720 pixels
Height                                   : 306 pixels
Display aspect ratio                     : 2.35:1
Frame rate                               : 23.976 fps
Color space                              : YUV
Chroma subsampling                       : 4:2:0
Bit depth                                : 8 bits
Scan type                                : Progressive
Compression mode                         : Lossy
Bits/(Pixel*Frame)                       : 0.215
Stream size                              : 748 MiB (71%)
Writing library                          : Lavc56.60.100

Audio
ID                                       : 1
Format                                   : AC-3
Format/Info                              : Audio Coding 3
Mode extension                           : CM (complete main)
Format settings, Endianness              : Big
Codec ID                                 : 2000
Duration                                 : 1h 31mn
Bit rate mode                            : Constant
Bit rate                                 : 448 Kbps
Channel(s)                               : 6 channels
Channel positions                        : Front: L C R, Side: L R, LFE
Sampling rate                            : 48.0 KHz
Frame rate                               : 31.250 fps (1536 spf)
Compression mode                         : Lossy
Stream size                              : 295 MiB (28%)
Alignment                                : Aligned on interleaves
Interleave, duration                     : 42 ms (1.00 video frame)
Interleave, preload duration             : 512 ms



[/mediainfo]
Download
File Container: AVI
Video/Audio Codec: XVID AC3
Video Resolution: 720x306
http://rapidrar.com/6botcqmzeasa
http://nitroflare.com/view/63465E9106E9D81/RARBG.www.RapidMovieZ.com.avi
http://uploadrocket.net/vanyywtfp6zt
http://clicknupload.link/9vhgkemrawj0
All releases of "Counter Clockwise"

Show us some love

Leave a Comment

  • (never displayed)
  •  
        Members don't see captchas. Sign Up / Sign In
  • Notify me via email when someone responds.
RMTEAM 480p Encoding Queue
RMTEAM x265 Encoding Queue

Latest Episodes

Popular Movies and TV Shows

Recent Comments

Archives