Download The Vampire Diaries (Diários de um Vampiro) – 1ª Temporada Dublado e Legendado - MEGA | Reign – Saison 4 | Telesync
Sign Up   |   Sign In  

Announcements

Want to support us?
Buy a RapidRAR account from our resellers:
Buy or renew a NitroFlare account via THIS LINK

02/14

2017

No

Comments

APB S01E02 Personal Matters 720p WEB-DL DD5 1 H264-KiMCHi
[RR/NF/UL/UR/CU]
Size: 1.3GB mkv H264 (HIGH) / AC3  HD  1280x720

A.P.B.
Click on the image to see full size
[RR/NF/UL/UR/CU] APB S01E02 Personal Matters 720p WEB-DL DD5 1 H264-KiMCHi (1.3GB) - Snapshot 1
File Information
[URL=http://imagecurl.com/viewer.php?file=51194131846156539803.png][IMG]http://imagecurl.com/images/51194131846156539803_thumb.png[/IMG][/URL]
[URL=http://imagecurl.com/viewer.php?file=90318179183503636290.png][IMG]http://imagecurl.com/images/90318179183503636290_thumb.png[/IMG][/URL]
[URL=http://imagecurl.com/viewer.php?file=86258144992167010964.png][IMG]http://imagecurl.com/images/86258144992167010964_thumb.png[/IMG][/URL]
[URL=http://imagecurl.com/viewer.php?file=19642644590375082947.png][IMG]http://imagecurl.com/images/19642644590375082947_thumb.png[/IMG][/URL]
[URL=http://imagecurl.com/viewer.php?file=46249923960005143973.png][IMG]http://imagecurl.com/images/46249923960005143973_thumb.png[/IMG][/URL]
[URL=http://imagecurl.com/viewer.php?file=34813118169097366843.png][IMG]http://imagecurl.com/images/34813118169097366843_thumb.png[/IMG][/URL]



[mediainfo]
Video
ID                                       : 1
Format                                   : AVC
Format/Info                              : Advanced Video Codec
Format profile                           : [email protected]
Format settings, CABAC                   : No
Format settings, ReFrames                : 2 frames
Codec ID                                 : V_MPEG4/ISO/AVC
Duration                                 : 43mn 21s
Bit rate                                 : 4 009 Kbps
Width                                    : 1 280 pixels
Height                                   : 720 pixels
Display aspect ratio                     : 16:9
Frame rate mode                          : Constant
Frame rate                               : 23.976 (23976/1000) fps
Color space                              : YUV
Chroma subsampling                       : 4:2:0
Bit depth                                : 8 bits
Scan type                                : Progressive
Bits/(Pixel*Frame)                       : 0.181
Stream size                              : 1.21 GiB (91%)
Language                                 : English
Default                                  : Yes
Forced                                   : No
Color range                              : Limited
Color primaries                          : BT.709
Transfer characteristics                 : BT.709
Matrix coefficients                      : BT.709

Audio
ID                                       : 2
Format                                   : AC-3
Format/Info                              : Audio Coding 3
Mode extension                           : CM (complete main)
Format settings, Endianness              : Big
Codec ID                                 : A_AC3
Duration                                 : 43mn 21s
Bit rate mode                            : Constant
Bit rate                                 : 384 Kbps
Channel(s)                               : 6 channels
Channel positions                        : Front: L C R, Side: L R, LFE
Sampling rate                            : 48.0 KHz
Frame rate                               : 31.250 fps (1536 spf)
Compression mode                         : Lossy
Stream size                              : 119 MiB (9%)
Language                                 : English
Default                                  : Yes
Forced                                   : No

Text
ID                                       : 3
Format                                   : UTF-8
Codec ID                                 : S_TEXT/UTF8
Codec ID/Info                            : UTF-8 Plain Text
Duration                                 : 43mn 19s
Bit rate                                 : 103 bps
Count of elements                        : 1076
Stream size                              : 32.8 KiB (0%)
Language                                 : English
Default                                  : Yes
Forced                                   : No



[/mediainfo]
Download
File Container: MKV
Video/Audio Codec: H264 (HIGH) AC3
Video Resolution: 1280x720

Show us some love

Leave a Comment

  • (never displayed)
  •  
        Members don't see captchas. Sign Up / Sign In
  • Notify me via email when someone responds.
  • Subscribe my Feeds
  • Facebook

Latest Episodes

Popular Movies and TV Shows

  • Criminal Minds
  • Bellevue
  • Homes Under the Hammer
  • I, Daniel Blake
  • Iliza Shlesinger: Confirmed Kills
  • Jackie
  • Timeless
  • Supergirl
  • 24: Legacy
  • Assassin's Creed
  • John Wick: Chapter 2
  • Jesse Stone: No Remorse
  • A.P.B.
  • Scorpion
  • 2 Broke Girls
  • Fare
  • Sophie and the Rising Sun
  • The Great & The Small
  • Quantico
  • Shadowhunters
  • The Walking Dead
  • September
  • The Freddie Mercury Story: Who Wants to Live Forever
  • Another Woman
  • Homeland

Recent Comments

  • steklodellhc: удалите,пожалуйста! . заказать зеркало в ванную в ...
  • strapdoc:

    Could you re-up uploaded.net please

  • strapdoc:

    Could you re-up uploaded.net please

  • strapdoc:

    Could you re-up uploaded.net please

  • strapdoc:

    Could you re-up uploaded.net please

  • tchamast:

    Any chance of getting an x265 of this (or another 1080p release)? Thanks all!

  • ktoff:

    Could you please do a 720p x265 version of this? Thanks

  • LstrHepzorce: What would you say if I told you that all of your posts are fiction? A greeting! I read not ...
  • CookieCK:

    links all dead =(

  • TheFlashx265:

    Epic! Thanks.