Watch show | Alaska: Ice Cold Killers (2012 ) | Estrada de Rei (King’s Road / Kóngavegur) 2010
Sign Up   |   Sign In  

Announcements

Want to support us?
Buy a RapidRAR account from our resellers:
Buy or renew a NitroFlare account via THIS LINK

02/14

2017

No

Comments

APB S01E02 Personal Matters 1080p WEB-DL DD5 1 H264-KiMCHi
[RR/NF/UL/UR/CU]
Size: 1.7GB mkv H264 (HIGH) / AC3  HD  1920x1080

A.P.B.
Click on the image to see full size
[RR/NF/UL/UR/CU] APB S01E02 Personal Matters 1080p WEB-DL DD5 1 H264-KiMCHi (1.7GB) - Snapshot 1
File Information
[URL=http://imagecurl.com/viewer.php?file=48499335060877906784.png][IMG]http://imagecurl.com/images/48499335060877906784_thumb.png[/IMG][/URL]
[URL=http://imagecurl.com/viewer.php?file=39619689606948280964.png][IMG]http://imagecurl.com/images/39619689606948280964_thumb.png[/IMG][/URL]
[URL=http://imagecurl.com/viewer.php?file=01875960410719967517.png][IMG]http://imagecurl.com/images/01875960410719967517_thumb.png[/IMG][/URL]
[URL=http://imagecurl.com/viewer.php?file=55217265043015254273.png][IMG]http://imagecurl.com/images/55217265043015254273_thumb.png[/IMG][/URL]
[URL=http://imagecurl.com/viewer.php?file=64388557696081665238.png][IMG]http://imagecurl.com/images/64388557696081665238_thumb.png[/IMG][/URL]
[URL=http://imagecurl.com/viewer.php?file=89643307267416106373.png][IMG]http://imagecurl.com/images/89643307267416106373_thumb.png[/IMG][/URL]



[mediainfo]
Video
ID                                       : 1
Format                                   : AVC
Format/Info                              : Advanced Video Codec
Format profile                           : [email protected]
Format settings, CABAC                   : Yes
Format settings, ReFrames                : 4 frames
Codec ID                                 : V_MPEG4/ISO/AVC
Duration                                 : 43mn 21s
Bit rate                                 : 5 130 Kbps
Width                                    : 1 920 pixels
Height                                   : 1 080 pixels
Display aspect ratio                     : 16:9
Frame rate mode                          : Constant
Frame rate                               : 23.976 (23976/1000) fps
Color space                              : YUV
Chroma subsampling                       : 4:2:0
Bit depth                                : 8 bits
Scan type                                : Progressive
Bits/(Pixel*Frame)                       : 0.103
Stream size                              : 1.55 GiB (93%)
Language                                 : English
Default                                  : Yes
Forced                                   : No
Color range                              : Limited
Color primaries                          : BT.709
Transfer characteristics                 : BT.709
Matrix coefficients                      : BT.709

Audio
ID                                       : 2
Format                                   : AC-3
Format/Info                              : Audio Coding 3
Mode extension                           : CM (complete main)
Format settings, Endianness              : Big
Codec ID                                 : A_AC3
Duration                                 : 43mn 21s
Bit rate mode                            : Constant
Bit rate                                 : 384 Kbps
Channel(s)                               : 6 channels
Channel positions                        : Front: L C R, Side: L R, LFE
Sampling rate                            : 48.0 KHz
Frame rate                               : 31.250 fps (1536 spf)
Compression mode                         : Lossy
Stream size                              : 119 MiB (7%)
Language                                 : English
Default                                  : Yes
Forced                                   : No

Text
ID                                       : 3
Format                                   : UTF-8
Codec ID                                 : S_TEXT/UTF8
Codec ID/Info                            : UTF-8 Plain Text
Duration                                 : 43mn 19s
Bit rate                                 : 103 bps
Count of elements                        : 1076
Stream size                              : 32.8 KiB (0%)
Language                                 : English
Default                                  : Yes
Forced                                   : No



[/mediainfo]
Download
File Container: MKV
Video/Audio Codec: H264 (HIGH) AC3
Video Resolution: 1920x1080

Show us some love

Leave a Comment

  • (never displayed)
  •  
        Members don't see captchas. Sign Up / Sign In
  • Notify me via email when someone responds.
  • Subscribe my Feeds
  • Facebook

Latest Episodes

Popular Movies and TV Shows

  • The Flash
  • Legends of Tomorrow
  • Agents of S.H.I.E.L.D.
  • Man Down
  • Hacksaw Ridge
  • Jackie
  • Billions
  • Bones
  • Bull
  • American Violence
  • Iliza Shlesinger: Confirmed Kills
  • Trespass Against Us
  • NCIS: Naval Criminal Investigative Service
  • The Mick
  • New Girl
  • I, Daniel Blake
  • Assassin's Creed
  • Tanna
  • Supergirl
  • Timeless
  • A.P.B.
  • John Wick: Chapter 2
  • Fare
  • Sophie and the Rising Sun
  • The Walking Dead

Recent Comments

  • x265Addict:

    x265 please.

  • x265Addict:

    thanks

  • x265Addict:

    Please upload in x265 cuz this has subs.

  • x265Addict:

    thanks

  • lekang:

    Please, can you add "This Is Us S01E16 HDTV x264-LOL" ?

  • bibi-56: Problem with "Openload" !!!! "The publisher of this file doesnt allow adblock, please...
  • TheFlashx265:

    Oh, and just a heads up. Episode 3 is on the Bay in 720p for anyone looking.

  • TheFlashx265: Was hoping to see this on here. Requesting 720p x265 hevc for this series. Please and thank you.
  • y206: best x265 rip = [UTR] best x264 rip = [JYK] audio rips ..Rubbish = [Yify] video rips ..Rubbish =...
  • thaone:

    Thanks